Тувалу / Tuvalu (Файт Хелмер / Veit Helmer) [1999, Германия, драма, комедия, фантасмагория, DVDRip-AVC]


Статистика раздачи [Обновить пиров]
Размер:  2.04 GB   |    Зарегистрирован:  1 год 1 месяц   |    Скачан:  0 раз

Полного источника не было: Никогда

 
   
 
 
 

[Цитировать]

Тувалу / Tuvalu
Страна: Германия
Жанр: драма, комедия, фантасмагория
Год выпуска: 1999
Продолжительность: 01:27:31
Перевод: Не требуется
Cубтитры: нет
Оригинальная аудиодорожка: есть.
Режиссер: Файт Хелмер / Veit Helmer
В ролях: Дени Лаван, Чулпан Хаматова, Филипп Клэй, Терренс Гиллеспи, Кэтэлина Мурджя, Э.Дж. Каллахан, Джоко Росич, Златина Тодева, Тодор Георгиев, Георги Кишкилов
Описание: Фильм снят в манере, очень напоминающей лучшие фильмы Ж. Жене ("Деликатесы", "Город потерянных детей", "Амели"). Вне определенных пространства и времени стоит старое, облупленное изнутри и снаружи здание с бассейном. В нем трудятся и его посещают облупленные изнутри и снаружи люди. Но каждый - яркая индивидуальность. Двое из них не принимают status quo и желают сменить обстановку.
Фильм в основном монохромный (но не черно-белый - уведен в сепию или зелень).
Доп. информация: В фильме почти нет речи. Каждый актер за весь фильм говорит несколько слов с интернациональными (индоевропейскими) корнями на родном языке ("technology", "идиот" и т.п.).
В фильме очень много воды, отсюда - очень плохая сжимаемость (и, как следствие, высокий битрейт)
Сэмпл

Награды:

Приз ФИПРЕСИ Flanders International Film Festival 1999 + номинация на Golden Spur.
Награда Puchon International Fantastic Film Festival 2000 в Сеуле.
Приз прессы Paris Film Festival 2000.
Награда Slamdance Film Festival (Park City).
Награда Bavarian Film Awards 2000 режиссёру в категории "Молодой фильм"
Награда Visionary Production Award by Birmingham Sidewalk Moving Picture Festival 2000.
Grand Prize of European Fantasy Film in Silver by Espoo Cin & International Film Festival 2000.
2 награды Hof International Filmdays 2000.
Награда Cambridge Film Festival 2001
Номинация на Grand Prize of European Fantasy Film in Gold by Fantasporto 2001 + приз жюри 2000 + награда International Fantasy Film Special Jury Award 2000 + номинация на лучший фильм
Номинация European Discovery of the Year by European Film Awards 2000.
Качество видео: DVDRip-AVC
Формат видео: MKV
Видео: h264, 702*344, соотношение сторон 2.041, 25 fps, Bit rate 2 826 Kbps, Bits/(Pixel*Frame) 0.468
Аудио: ac3, 48 kHz, 448 Kbps, 5.1

MediaInfo

General
Unique ID : 182355358118678673963576728353922577195 (0x89305D4E09D75A96A6B8F19DA13F732B)
Complete name : Z:\kino\import\Tuvalu.mkv
Format : Matroska
Format version : Version 4 / Version 2
File size : 2.04 GiB
Duration : 1h 27mn
Overall bit rate : 3 340 Kbps
Encoded date : UTC 2015-09-03 16:37:30
Writing application : mkvmerge v6.2.0 ('Promised Land') built on Apr 28 2013 12:22:01
Writing library : libebml v1.3.0 + libmatroska v1.4.0
Video
ID : 1
Format : AVC
Format/Info : Advanced Video Codec
Format profile : Main@L4.1
Format settings, CABAC : Yes
Format settings, ReFrames : 15 frames
Codec ID : V_MPEG4/ISO/AVC
Duration : 1h 27mn
Bit rate : 2 826 Kbps
Width : 702 pixels
Height : 344 pixels
Display aspect ratio : 2.041
Frame rate mode : Constant
Frame rate : 25.000 fps
Color space : YUV
Chroma subsampling : 4:2:0
Bit depth : 8 bits
Scan type : Progressive
Bits/(Pixel*Frame) : 0.468
Stream size : 1.73 GiB (85%)
Writing library : x264 core 133 r2334 a3ac64b
Encoding settings : cabac=1 / ref=16 / deblock=1:-2:-2 / analyse=0x1:0x111 / me=esa / subme=10 / psy=1 / psy_rd=1.00:0.00 / mixed_ref=1 / me_range=24 / chroma_me=1 / trellis=2 / 8x8dct=0 / cqm=0 / deadzone=21,11 / fast_pskip=1 / chroma_qp_offset=-2 / threads=12 / lookahead_threads=1 / sliced_threads=0 / nr=0 / decimate=1 / interlaced=0 / bluray_compat=0 / constrained_intra=0 / bframes=8 / b_pyramid=1 / b_adapt=1 / b_bias=1 / direct=1 / weightb=1 / open_gop=0 / weightp=2 / keyint=250 / keyint_min=25 / scenecut=40 / intra_refresh=0 / rc_lookahead=40 / rc=crf / mbtree=1 / crf=19.0 / qcomp=0.80 / qpmin=0 / qpmax=69 / qpstep=4 / ip_ratio=1.40 / aq=1:1.00
Default : Yes
Forced : No
Audio
ID : 2
Format : AC-3
Format/Info : Audio Coding 3
Mode extension : CM (complete main)
Format settings, Endianness : Big
Codec ID : A_AC3
Duration : 1h 27mn
Bit rate mode : Constant
Bit rate : 448 Kbps
Channel(s) : 6 channels
Channel positions : Front: L C R, Side: L R, LFE
Sampling rate : 48.0 KHz
Bit depth : 16 bits
Compression mode : Lossy
Stream size : 280 MiB (13%)
Default : Yes
Forced : No

h264

[Information] Log
-[Information] Versions
--[NoImage] MeGUI Version : 0.3.4.0
--[NoImage] OS : Windows Seven Ultimate Edition x64 SP1 (6.1.65536.7601)
--[NoImage] Latest .Net Framework installed : .x (..)
--[NoImage] Avisynth Version : 2.5.8.5
-[Information] Log for job108 (video, VTS_01_1.avs -> VTS_01_1.mp4)
--[Information] [03.09.2015 17:11:09] Started handling job
--[Information] [03.09.2015 17:11:09] Preprocessing
--[NoImage] Job commandline: "D:\video\x264\Megui\tools\x264\x264.exe" --profile main --level 4.1 --crf 19.0 --thread-input --deblock -2:-2 --bframes 8 --b-pyramid strict --b-bias 1 --ref 16 --qcomp 0.8 --merange 24 --me esa --subme 10 --partitions p8x8,b8x8,i4x4 --no-8x8dct --trellis 2 --sar 1:1 --output "Z:\2rip\MainMovie\Tuvalu\VIDEO_TS\VTS_01_1.mp4" "Z:\2rip\MainMovie\Tuvalu\VIDEO_TS\VTS_01_1.avs"
--[Information] [03.09.2015 17:11:09] Encoding started
--[NoImage] Standard output stream:
--[NoImage] Standard error stream
---[NoImage] avs [info]: 702x344p 1:1 @ 25/1 fps (cfr)
---[NoImage] x264 [info]: using SAR=1/1
---[NoImage] x264 [info]: using cpu capabilities: MMX2 SSE2Fast SSSE3 SSE4.2 AVX
---[NoImage] x264 [info]: profile Main, level 4.1
---[NoImage]
---[NoImage] x264 [info]: frame I:1517 Avg QP:17.40 size: 49206
---[NoImage] x264 [info]: frame P:73382 Avg QP:20.32 size: 18713
---[NoImage] x264 [info]: frame B:56377 Avg QP:22.39 size: 7971
---[NoImage] x264 [info]: consecutive B-frames: 16.6% 76.7% 5.4% 1.3% 0.0% 0.0% 0.0% 0.0% 0.0%
---[NoImage] x264 [info]: mb I I16..4: 14.3% 0.0% 85.7%
---[NoImage] x264 [info]: mb P I16..4: 2.0% 0.0% 7.8% P16..4: 38.1% 32.6% 17.3% 0.0% 0.0% skip: 2.3%
---[NoImage] x264 [info]: mb B I16..4: 0.1% 0.0% 0.9% B16..8: 37.0% 13.4% 4.5% direct:18.2% skip:25.9% L0:29.8% L1:38.1% BI:32.0%
---[NoImage] x264 [info]: coded y,uvDC,uvAC intra: 89.4% 80.7% 58.4% inter: 56.0% 31.7% 6.1%
---[NoImage] x264 [info]: i16 v,h,dc,p: 36% 16% 18% 30%
---[NoImage] x264 [info]: i4 v,h,dc,ddl,ddr,vr,hd,vl,hu: 13% 7% 6% 9% 12% 11% 13% 12% 18%
---[NoImage] x264 [info]: i8c dc,h,v,p: 36% 27% 21% 15%
---[NoImage] x264 [info]: Weighted P-Frames: Y:13.4% UV:2.5%
---[NoImage] x264 [info]: ref P L0: 49.7% 14.8% 11.2% 5.3% 3.7% 2.9% 2.5% 1.6% 1.4% 1.3% 1.1% 1.0% 1.0% 0.9% 0.9% 0.7%
---[NoImage] x264 [info]: ref B L0: 85.1% 6.7% 2.6% 1.2% 0.9% 0.7% 0.6% 0.4% 0.3% 0.3% 0.3% 0.3% 0.2% 0.2%
---[NoImage] x264 [info]: ref B L1: 99.3% 0.7%
---[NoImage] x264 [info]: kb/s:2890.49
---[NoImage] encoded 131276 frames, 8.89 fps, 2890.49 kb/s
--[Information] Final statistics
---[NoImage] Constant Quality Mode: Quality 19 computed...
---[NoImage] Video Bitrate Obtained (approximate): 2892 kbit/s
--[Information] [03.09.2015 21:17:23] Postprocessing
---[Information] Deleting intermediate files
--[Information] [03.09.2015 21:17:23] Job completed

Скриншот c названием фильма

Скриншоты

[teatrix.ru].t5662.torrent 
Торрент: Зарегистрирован [ 2015-10-09 00:55 ] · 8B3F7D4D752167F9FC320DB1956EE4A706C34612

Скачать .torrent

Скачать

11 KB

Статус: проверено
Скачан: 0 раз
Размер: 2.04 GB
terms.php



Быстрый ответ

Имя:

      
Для отправки сообщений необходимо включить JavaScript
Показать сообщения:    

Текущее время: 08-Дек 23:13

Часовой пояс: UTC + 3


Вы можете начинать темы
Вы можете отвечать на сообщения
Вы не можете редактировать свои сообщения
Вы не можете удалять свои сообщения
Вы не можете голосовать в опросах
Вы не можете прикреплять файлы к сообщениям
Вы можете скачивать файлы