Война окончена / La guerre est finie / Kriget ar slut / The War Is Over (Ален Рене / Alain Resnais) [1966, Франция, Швеция, драма, военный, DVDRip] MVO + Original Fre


Статистика раздачи [Обновить пиров]
Размер:  1.61 GB   |    Зарегистрирован:  1 год 3 месяца   |    Скачан:  0 раз

Полного источника не было: Никогда

 
   
 
 
 

[Цитировать]

Война окончена / La guerre est finie / Kriget ar slut / The War Is Over
Страна: Франция, Швеция
Жанр: драма, военный
Год выпуска: 1966
Продолжительность: 01:56:10
Перевод: Профессиональный (многоголосый закадровый)
Cубтитры: английские
Оригинальная аудиодорожка: французский

Режиссер: Ален Рене / Alain Resnais
В ролях: Ив Монтан, Ингрид Тулин, Женевьев Бюжо, Жан Дасте, Доминик Розан, Жан-Франсуа Реми, Мари Мерже, Мишель Пикколи, Анук Фержак, Ролан Моно
Описание: Диего, один из руководителей работающей в подполье испанской Коммунистической партии, возвращается в Париж из Мадрида. Его арестовывают на границе, но затем отпускают, благодаря стараниям юной студентки Надин, дочери человека, паспортом которого Диего пользуется. В Париже он ищет Хуана, одного из своих товарищей, чтобы отговорить от возвращения в Мадрид, где его может арестовать полиция.
Качество видео: DVDRip
Формат видео: AVI
Видео: 640x400 (1.60:1), 25 fps, XviD build 73 ~1593 kbps avg, 0.25 bit/pixel
Аудио: 48 kHz, AC3 Dolby Digital, 2/0 (L,R) ch, ~192 kbps - многоголосый
Аудио: 48 kHz, AC3 Dolby Digital, 2/0 (L,R) ch, ~192 kbps - оригинал (отдельным файлом)

MediaInfo

Общее
Полное имя : H:\La.guerre.est.finie.1966.dvdrip_[1.45]_[teko]\La.guerre.est.finie.1966.dvdrip_[1.45].avi
Формат : AVI
Формат/Информация : Audio Video Interleave
Размер файла : 1,46 Гбайт
Продолжительность : 1 ч. 56 м.
Общий поток : 1796 Кбит/сек
Программа кодирования : VirtualDubMod 1.5.10.3 | www.virtualdub-fr.org || (build 2550/release)
Библиотека кодирования : VirtualDubMod build 2550/release
Видео
Идентификатор : 0
Формат : MPEG-4 Visual
Профиль формата : Advanced Simple@L5
Параметр BVOP формата : 1
Параметр QPel формата : Нет
Параметр GMC формата : Без точки перехода
Параметр матрицы формата : Выборочная
Идентификатор кодека : XVID
Идентификатор кодека/Подсказка : XviD
Продолжительность : 1 ч. 56 м.
Битрейт : 1594 Кбит/сек
Ширина : 640 пикселей
Высота : 400 пикселей
Соотношение сторон : 16:10
Частота кадров : 25,000 кадров/сек
Цветовое пространство : YUV
Субдискретизация насыщенности : 4:2:0
Битовая глубина : 8 бит
Тип развёртки : Прогрессивная
Метод сжатия : С потерями
Бит/(Пиксели*Кадры) : 0.249
Размер потока : 1,29 Гбайт (89%)
Библиотека кодирования : XviD 73
Аудио
Идентификатор : 1
Формат : AC-3
Формат/Информация : Audio Coding 3
Расширение режима : CM (complete main)
Параметр Endianness формата : Big
Идентификатор кодека : 2000
Продолжительность : 1 ч. 56 м.
Вид битрейта : Постоянный
Битрейт : 192 Кбит/сек
Каналы : 2 канала
Расположение каналов : Front: L R
Частота : 48,0 КГц
Битовая глубина : 16 бит
Метод сжатия : С потерями
Размер потока : 160 Мбайт (11%)
Выравнивание : Разделение по промежуткам
Продолжительность промежутка : 40 мс. (1,00 видеокадр)
Время предзагрузки промежутка : 500 мс.

Скриншоты

[teatrix.ru].t5663.torrent 
Торрент: Зарегистрирован [ 2015-10-09 00:55 ] · EAA44EED2DEF17D47660169BCE5D7EC14BD58C71

Скачать .torrent

Скачать

17 KB

Статус: проверено
Скачан: 0 раз
Размер: 1.61 GB
terms.php



Быстрый ответ

Имя:

      
Для отправки сообщений необходимо включить JavaScript
Показать сообщения:    

Текущее время: 21-Янв 11:38

Часовой пояс: UTC + 3


Вы можете начинать темы
Вы можете отвечать на сообщения
Вы не можете редактировать свои сообщения
Вы не можете удалять свои сообщения
Вы не можете голосовать в опросах
Вы не можете прикреплять файлы к сообщениям
Вы можете скачивать файлы