Плывущие водоросли / Ukikusa / Floating Weeds (Ясудзиро Одзу / Yasujiro Ozu) [1959, Япония, драма, HDRip-AVC] AVO (С. Кузнецов) + Sub Rus, Eng + Original Jap


 

[Цитировать]

Плывущие водоросли / Ukikusa / Floating Weeds
Страна: Япония
Жанр: драма
Год выпуска: 1959
Продолжительность: 01:59:05
Перевод: Авторский (одноголосый закадровый) Сергей Кузнецов
Cубтитры: русские (morosoff), английские
Оригинальная аудиодорожка: японский
Режиссер: Ясудзиро Одзу / Yasujiro Ozu
В ролях: Ганжиро Накамура / Ganjiro Nakamura, Мачико Кио/ Machiko Kyo, Хироши Кавагучи / Hiroshi Kawaguchi, Харуко Сугимура / Haruko Sugimura, Аяко Вакао / Ayako Wakao…
Описание: Группа актеров театра кабуки приезжает в прибрежный городок на юге острова Кейуши. Ведущая актриса театра Сумико узнает, что у ее любовника Комаджиро, так же актера труппы, в городе есть женщина и взрослый сын. Она решает отомстить за предательство. Сумико подговоривает молодую актрису театра Кайо, чтобы та соблазнила его сына.
Данный фильм - ремейк Я. Одзу на свой собственный фильм 1934 года "История о плавающих водорослях".
II Сэмпл II IMDB II
Релиз группа:

Доп. информация:
За перевод С. Кузнецова спасибо dooctoor
За русские субтитры спасибо colt451
Качество видео: HDRip-AVC (Floating.Weeds.1959.1080p.BluRay.x264-MELiTE)
Формат видео: MKV
Видео: AVC / 864x648 / 4:3 / 23.976fps / Bit rate 2190Kbps / High@L4.1
Аудио 1: AC3 / 48.0 KHz / 2ch. / 192kbps / rus / avo / С. Кузнецов
Аудио 2: AC3 / 48.0 KHz / 2ch. / 224kbps / jap
Формат субтитров: softsub (SRT)

MediaInfo

Общее
Уникальный идентификатор : 222158298892604199640818842360713248394 (0xA72221CC44BAF39D8A5D5A5729BAFE8A)
Полное имя : E:\torrent\Floating.Weeds.1959.HDRip-AVC_by_vedigo.mkv
Формат : Matroska
Версия формата : Version 4 / Version 2
Размер файла : 2,17 Гбайт
Продолжительность : 1 ч. 58 м.
Общий поток : 2608 Кбит/сек
Название фильма : Floating.Weeds.1959.HDRip-AVC_by_vedigo
Дата кодирования : UTC 2015-08-28 06:45:23
Программа кодирования : mkvmerge v8.3.0 ('Over the Horizon') 64bit
Библиотека кодирования : libebml v1.3.1 + libmatroska v1.4.2
DURATION : 01:57:52.689000000
NUMBER_OF_FRAMES : 1148
NUMBER_OF_BYTES : 34652
_STATISTICS_WRITING_APP : mkvmerge v8.3.0 ('Over the Horizon') 64bit
_STATISTICS_WRITING_DATE_UTC : 2015-08-28 06:45:23
_STATISTICS_TAGS : BPS DURATION NUMBER_OF_FRAMES NUMBER_OF_BYTES
Видео
Идентификатор : 1
Формат : AVC
Формат/Информация : Advanced Video Codec
Профиль формата : High@L4.1
Параметр CABAC формата : Да
Параметр ReFrames формата : 14 кадров
Идентификатор кодека : V_MPEG4/ISO/AVC
Продолжительность : 1 ч. 58 м.
Битрейт : 2190 Кбит/сек
Ширина : 864 пикселя
Высота : 648 пикселей
Соотношение сторон : 4:3
Режим частоты кадров : Постоянный
Частота кадров : 23,976 кадра/сек
Цветовое пространство : YUV
Субдискретизация насыщенности : 4:2:0
Битовая глубина : 8 бит
Тип развёртки : Прогрессивная
Бит/(Пиксели*Кадры) : 0.163
Размер потока : 1,78 Гбайт (82%)
Заголовок : Floating.Weeds.1959.HDRip-AVC_by_vedigo
Библиотека кодирования : x264 core 148 r2579 73ae2d1
Настройки программы : cabac=1 / ref=14 / deblock=1:-3:-3 / analyse=0x3:0x133 / me=umh / subme=11 / psy=1 / psy_rd=1.00:0.10 / mixed_ref=1 / me_range=36 / chroma_me=1 / trellis=2 / 8x8dct=1 / cqm=0 / deadzone=21,11 / fast_pskip=0 / chroma_qp_offset=-3 / threads=6 / lookahead_threads=1 / sliced_threads=0 / nr=0 / decimate=1 / interlaced=0 / bluray_compat=0 / constrained_intra=0 / bframes=8 / b_pyramid=2 / b_adapt=2 / b_bias=0 / direct=3 / weightb=1 / open_gop=0 / weightp=2 / keyint=250 / keyint_min=23 / scenecut=40 / intra_refresh=0 / rc_lookahead=40 / rc=2pass / mbtree=0 / bitrate=2190 / ratetol=1.0 / qcomp=0.60 / qpmin=0 / qpmax=69 / qpstep=4 / cplxblur=20.0 / qblur=0.5 / vbv_maxrate=50000 / vbv_bufsize=62500 / nal_hrd=none / filler=0 / ip_ratio=1.40 / pb_ratio=1.30 / aq=1:1.00
Default : Да
Forced : Нет
DURATION : 01:58:58.799000000
NUMBER_OF_FRAMES : 171160
NUMBER_OF_BYTES : 1954244009
_STATISTICS_WRITING_APP : mkvmerge v8.3.0 ('Over the Horizon') 64bit
_STATISTICS_WRITING_DATE_UTC : 2015-08-28 06:45:23
_STATISTICS_TAGS : BPS DURATION NUMBER_OF_FRAMES NUMBER_OF_BYTES
Аудио #1
Идентификатор : 2
Формат : AC-3
Формат/Информация : Audio Coding 3
Расширение режима : CM (complete main)
Параметр Endianness формата : Big
Идентификатор кодека : A_AC3
Продолжительность : 1 ч. 58 м.
Вид битрейта : Постоянный
Битрейт : 192 Кбит/сек
Каналы : 2 канала
Расположение каналов : Front: L R
Частота : 48,0 КГц
Метод сжатия : С потерями
Размер потока : 163 Мбайт (7%)
Заголовок : AVO @ С. Кузнецов
Язык : Russian
Default : Да
Forced : Нет
Аудио #2
Идентификатор : 3
Формат : AC-3
Формат/Информация : Audio Coding 3
Расширение режима : CM (complete main)
Параметр Endianness формата : Big
Идентификатор кодека : A_AC3
Продолжительность : 1 ч. 58 м.
Вид битрейта : Постоянный
Битрейт : 224 Кбит/сек
Каналы : 2 канала
Расположение каналов : Front: L R
Частота : 48,0 КГц
Метод сжатия : С потерями
Размер потока : 191 Мбайт (9%)
Заголовок : original
Язык : Japanese
Default : Нет
Forced : Нет
Текст #1
Идентификатор : 4
Формат : UTF-8
Идентификатор кодека : S_TEXT/UTF8
Идентификатор кодека/Информация : UTF-8 Plain Text
Заголовок : subtitle rus
Язык : Russian
Default : Нет
Forced : Нет
Текст #2
Идентификатор : 5
Формат : UTF-8
Идентификатор кодека : S_TEXT/UTF8
Идентификатор кодека/Информация : UTF-8 Plain Text
Заголовок : subtitle eng
Язык : English
Default : Нет
Forced : Нет

Скриншот c названием фильма

Скриншоты





Показать сообщения:    

Текущее время: 05-Дек 23:39

Часовой пояс: UTC + 3


Вы не можете начинать темы
Вы не можете отвечать на сообщения
Вы не можете редактировать свои сообщения
Вы не можете удалять свои сообщения
Вы не можете голосовать в опросах
Вы не можете прикреплять файлы к сообщениям
Вы не можете скачивать файлы