Любовь в городе / L'Amore in citta (Карло Лиццани / Carlo Lizzani, Микеланжело Антониони / Michelangelo Antonioni, Дино Ризи / Dino Risi, Федерико Феллини / Federico Fellini и др.) [1953, Италия, мелодрама, драма, DVDRip] Sub Rus, Eng + Original


Статистика раздачи [Обновить пиров]
Размер:  1.45 GB   |    Зарегистрирован:  1 год 1 месяц   |    Скачан:  0 раз

Полного источника не было: Никогда

 
   
 
 
 

[Цитировать]

Любовь в городе / L'Amore in citta
Страна: Италия
Жанр: мелодрама, драма
Год выпуска: 1953
Продолжительность: 01:49:39
Перевод: Субтитры - leonid55
Cубтитры: русские, английские
Оригинальная аудиодорожка: итальянский

Режиссер: Карло Лиццани / Carlo Lizzani, Микелеанжело Антониони / Michelangelo Antonioni, Дино Ризи / Dino Risi, Федерико Феллини / Federico Fellini и другие
В ролях: Рита Йоса, Розанна Карта, Энрико Пелличчия, Донателла Марросу, Паоло Пачетти, Нелла Бертуччьони, Лилия Нарди, Лена Росси, Мария Нобили, Антонио Чифарелло
Описание: Лента сделана в форме киножурнала “Lo Spettatore” («Очевидец») №1 за 1953 год, что можно трактовать как ответ семи создавших фильм режиссёров другой группе коллег — Роберто Росселлини, Лукино Висконти, Витторио де Сике и Джузеппе де Сантису, сгруппировавшихся вокруг киножурнала ”Cinema”. «Этот наш журнал, сделанный в виде фильма, а не с помощью ручки и чернил, посвящён любви в Великом Городе. Не такой, как она была бы представлена энергичным мужчиной типа Кирка Дугласа и очаровательной женщиной типа Мерилин Монро. То есть это не сцены „страстной любви“, переработанные, исправленные и поставленные так, чтобы заставить вас замирать от волнения. Персонажи этого журнала — это не профессиональные актёры, а обычные городские жители. Мы выбрали реальных людей, которые пережили описываемые события».
Качество видео: DVDRip
Формат видео: AVI
Видео: 640x480 (1.33:1), 25 fps, XviD build 73 ~1664 kbps avg, 0.22 bit/pixel
Аудио: 48 kHz, AC3 Dolby Digital, 2/0 (L,R) ch, ~224 kbps

Фрагмент субтитров

516
00:36:11,920 --> 00:36:15,014
Но когда я увидела
выражения их лиц,
517
00:36:15,015 --> 00:36:16,715
я поверила и сказала:
518
00:36:16,720 --> 00:36:18,414
"Хорошо, Джакомо.
519
00:36:18,615 --> 00:36:21,415
Только никогда больше
обо мне не спрашивай."
520
00:36:22,320 --> 00:36:24,755
Я решила прекратить всё это.
521
00:36:24,856 --> 00:36:27,256
Он попрощался и они ушли.
522
00:36:40,320 --> 00:36:42,771
Я осталась в одиночестве
523
00:36:42,972 --> 00:36:45,472
и решила сделать...
то что сделала.
524
00:36:49,920 --> 00:36:52,912
Я зашла в несколько аптек
525
00:36:53,120 --> 00:36:57,271
и купила всякой отравы,
чтобы наглотаться и всё закончить.
526
00:36:58,920 --> 00:37:02,708
Около полудня
я вернулась в Монтесакро
527
00:37:02,920 --> 00:37:06,132
и села на лавочку,
рядом с колонкой.

MediaInfo

Общее
Полное имя : H:\L'amore.in.citta.1953.dvdrip_[1.46]_[teko]\L'amore.in.citta.1953.dvdrip_[1.46].avi
Формат : AVI
Формат/Информация : Audio Video Interleave
Размер файла : 1,45 Гбайт
Продолжительность : 1 ч. 49 м.
Общий поток : 1898 Кбит/сек
Программа кодирования : VirtualDubMod 1.5.10.3 | www.virtualdub-fr.org || (build 2550/release)
Библиотека кодирования : VirtualDubMod build 2550/release
Видео
Идентификатор : 0
Формат : MPEG-4 Visual
Профиль формата : Advanced Simple@L5
Параметр BVOP формата : 1
Параметр QPel формата : Нет
Параметр GMC формата : Без точки перехода
Параметр матрицы формата : Выборочная
Идентификатор кодека : XVID
Идентификатор кодека/Подсказка : XviD
Продолжительность : 1 ч. 49 м.
Битрейт : 1664 Кбит/сек
Ширина : 640 пикселей
Высота : 480 пикселей
Соотношение сторон : 4:3
Частота кадров : 25,000 кадров/сек
Цветовое пространство : YUV
Субдискретизация насыщенности : 4:2:0
Битовая глубина : 8 бит
Тип развёртки : Прогрессивная
Метод сжатия : С потерями
Бит/(Пиксели*Кадры) : 0.217
Размер потока : 1,27 Гбайт (88%)
Библиотека кодирования : XviD 73
Аудио
Идентификатор : 1
Формат : AC-3
Формат/Информация : Audio Coding 3
Расширение режима : CM (complete main)
Параметр Endianness формата : Big
Идентификатор кодека : 2000
Продолжительность : 1 ч. 49 м.
Вид битрейта : Постоянный
Битрейт : 224 Кбит/сек
Каналы : 2 канала
Расположение каналов : Front: L R
Частота : 48,0 КГц
Битовая глубина : 16 бит
Метод сжатия : С потерями
Размер потока : 176 Мбайт (12%)
Выравнивание : Разделение по промежуткам
Продолжительность промежутка : 40 мс. (1,00 видеокадр)
Время предзагрузки промежутка : 500 мс.
[teatrix.ru].t5665.torrent 
Торрент: Зарегистрирован [ 2015-10-09 00:55 ] · 0032F12CA42825BE3BFEE438C66788384AEBC476

Скачать .torrent

Скачать

15 KB

Статус: проверено
Скачан: 0 раз
Размер: 1.45 GB
terms.php



Быстрый ответ

Имя:

      
Для отправки сообщений необходимо включить JavaScript
Показать сообщения:    

Текущее время: 03-Дек 05:29

Часовой пояс: UTC + 3


Вы можете начинать темы
Вы можете отвечать на сообщения
Вы не можете редактировать свои сообщения
Вы не можете удалять свои сообщения
Вы не можете голосовать в опросах
Вы не можете прикреплять файлы к сообщениям
Вы можете скачивать файлы