Прелестное дитя / Pretty Baby (Луи Маль / Louis Malle) [1978, США, драма, DVB -> DVD] [Fullscreen] MVO (5 канал) + AVO (Михаил Иванов) + VO (Автор не опознан) + Original Eng


Статистика раздачи [Обновить пиров]
Размер:  3.07 GB   |    Зарегистрирован:  1 год 1 месяц   |    Скачан:  1 раз

Полного источника не было: 10 месяцев 2 дня

 
   
 
 
 

[Цитировать]

Прелестное дитя / Pretty Baby
Fullscreen
Страна: США
Жанр: драма
Год выпуска: 1978
Продолжительность: 01:42:42
Перевод: Профессиональный (многоголосый закадровый) 5 канал
Перевод 2: Авторский (одноголосый закадровый) Михаил Иванов
Перевод 3: Одноголосый закадровый (Автор не опознан)
Cубтитры: нет
Оригинальная аудиодорожка: английский
Режиссер: Луи Маль / Louis Malle
В ролях: Брук Шилдс, Кит Кэрредин, Сьюзен Сарандон, Фрэнсис Фэй, Антонио Фаргас, Мэттью Энтон, Дайана Скаруид, Барбара Стил, Серет Скоттб, Шерил Марковиц ...
Описание: Новый Орлеан, 1917-й год. Дочь проститутки, 12-летняя Вайолет, выросшая в Новоорлеанском борделе, с раннего детства была посвящена в особенности нелегкого труда дам горизонтальной профессии. Но роль девственницы заведения, как правило, играется недолго, ведь невинность — это тот товар, который хорошо продается…
Доп. информация: DVB c какого-то немецкого канала. В отличии от всех остальных релизов на трекере здесь полный, необрезанный кадр. Была убрана немецкая дорожка и подогнаны все существующие русские озвучки + английская дорожка.
Несмотря на более короткую продолжительность фильм полный, никакие эпизоды не были пропущены.
Сэмпл: http://multi-up.com/1063987
Качество видео: DVB
Формат видео: DVD Video
Видео: MPEG Video 2, 720x576 (4:3), 25 fps, ~3415 kbps avg, 0.329 bit/pixel
Аудио: Russian, AC3, 2/0 (L,R) ch, 192 kbps, - MVO 5 канал
Аудио 2: Russian, AC3, 2/0 (L,R) ch, 192 kbps - AVO Михаил Иванов
Аудио 3: Russian, AC3, 2/0 (L,R) ch, 192 kbps (Автор не опознан)
Аудио 4: English, AC3, 2/0 (L,R) ch, 192 kbps

MediaInfo

Общее
Полное имя : D:\Pretty baby 1978\VIDEO_TS\VTS_01_1.VOB
Формат : MPEG-PS
Размер файла : 1024 Мбайт
Продолжительность : 33 м.
Режим общего битрейта : Переменный
Общий поток : 4268 Кбит/сек
Видео
Идентификатор : 224 (0xE0)
Формат : MPEG Video
Версия формата : Version 2
Профиль формата : Main@Main
Параметр BVOP формата : Да
Параметр матрицы формата : Выборочная
Параметр GOP формата : Variable
Продолжительность : 33 м.
Вид битрейта : Переменный
Битрейт : 3415 Кбит/сек
Ширина : 720 пикселей
Высота : 576 пикселей
Соотношение сторон : 4:3
Частота кадров : 25,000 кадров/сек
Стандарт вещания : PAL
Цветовое пространство : YUV
Субдискретизация насыщенности : 4:2:0
Битовая глубина : 8 бит
Тип развёртки : Прогрессивная
Порядок развёртки : Верхнее поле первое
Метод сжатия : С потерями
Бит/(Пиксели*Кадры) : 0.329
Временной код первого кадра : 00:00:00:00
Оригинал временного кода : Group of pictures header
Размер потока : 819 Мбайт (80%)
Аудио #1
Идентификатор : 189 (0xBD)-128 (0x80)
Формат : AC-3
Формат/Информация : Audio Coding 3
Расширение режима : CM (complete main)
Параметр Endianness формата : Big
Режим смешивания : DVD-Video
Продолжительность : 33 м.
Вид битрейта : Постоянный
Битрейт : 192 Кбит/сек
Каналы : 2 канала
Расположение каналов : Front: L R
Частота : 48,0 КГц
Битовая глубина : 16 бит
Метод сжатия : С потерями
Размер потока : 46,1 Мбайт (4%)
Аудио #2
Идентификатор : 189 (0xBD)-129 (0x81)
Формат : AC-3
Формат/Информация : Audio Coding 3
Расширение режима : CM (complete main)
Параметр Endianness формата : Big
Режим смешивания : DVD-Video
Продолжительность : 33 м.
Вид битрейта : Постоянный
Битрейт : 192 Кбит/сек
Каналы : 2 канала
Расположение каналов : Front: L R
Частота : 48,0 КГц
Битовая глубина : 16 бит
Метод сжатия : С потерями
Размер потока : 46,1 Мбайт (4%)
Аудио #3
Идентификатор : 189 (0xBD)-130 (0x82)
Формат : AC-3
Формат/Информация : Audio Coding 3
Расширение режима : CM (complete main)
Параметр Endianness формата : Big
Режим смешивания : DVD-Video
Продолжительность : 33 м.
Вид битрейта : Постоянный
Битрейт : 192 Кбит/сек
Каналы : 2 канала
Расположение каналов : Front: L R
Частота : 48,0 КГц
Битовая глубина : 16 бит
Метод сжатия : С потерями
Размер потока : 46,1 Мбайт (4%)
Аудио #4
Идентификатор : 189 (0xBD)-131 (0x83)
Формат : AC-3
Формат/Информация : Audio Coding 3
Расширение режима : CM (complete main)
Параметр Endianness формата : Big
Режим смешивания : DVD-Video
Продолжительность : 33 м.
Вид битрейта : Постоянный
Битрейт : 192 Кбит/сек
Каналы : 2 канала
Расположение каналов : Front: L R
Частота : 48,0 КГц
Битовая глубина : 16 бит
Метод сжатия : С потерями
Размер потока : 46,1 Мбайт (4%)
Меню

DVDInfo

Title: Pretty baby 1978
Size: 3.07 Gb ( 3 214 812,00 KBytes ) - DVD-5
Enabled regions: 1, 2, 3, 4, 5, 6, 7, 8
VTS_01 :
Play Length: 01:42:41
Video: PAL 4:3 (720x576) VBR
Audio:
Russian (Dolby AC3, 2 ch)
Russian (Dolby AC3, 2 ch)
Russian (Dolby AC3, 2 ch)
English (Dolby AC3, 2 ch)
* Menus Information *
VIDEO_TS Menu
Video:
PAL 4:3 (720x576) VBR
Auto Pan&Scan, Auto Letterboxed
Language Unit :
Title Menu
VTS_01 Menu
Video:
PAL 4:3 (720x576) VBR
Auto Pan&Scan, Auto Letterboxed
Language Unit :
Root Menu

Скриншот c названием фильма

Скриншоты

[teatrix.ru].t5666.torrent 
Торрент: Зарегистрирован [ 2015-10-09 00:55 ] · CAE389A30CCB8BD6FB034132159D7C2B6E9AFE85

Скачать .torrent

Скачать

16 KB

Статус: проверено
Скачан: 1 раз
Размер: 3.07 GB
terms.php



Быстрый ответ

Имя:

      
Для отправки сообщений необходимо включить JavaScript
Показать сообщения:    

Текущее время: 05-Дек 21:33

Часовой пояс: UTC + 3


Вы можете начинать темы
Вы можете отвечать на сообщения
Вы не можете редактировать свои сообщения
Вы не можете удалять свои сообщения
Вы не можете голосовать в опросах
Вы не можете прикреплять файлы к сообщениям
Вы можете скачивать файлы