Отрезанные головы / Cabezas cortadas (Глаубер Роша / Glauber Rocha) [1970, Испания, Бразилия, драма, политический, TVRip] Sub Rus (lobo) + Original Spa


Статистика раздачи [Обновить пиров]
Размер:  700 MB   |    Зарегистрирован:  1 год 1 месяц   |    Скачан:  0 раз

Полного источника не было: 2 месяца 2 дня

 
   
 
 
 

[Цитировать]

Отрезанные головы / Cabezas cortadas
Страна: Испания, Бразилия
Жанр: драма, политический
Год выпуска: 1970
Продолжительность: 01:34:00-Перевод: Субтитры (lobo)
Cубтитры: русские
Оригинальная аудиодорожка: испанский-Режиссер: Глаубер Роша / Glauber Rocha-В ролях: Франсиско Рабаль, Пьер Клементи, Марта Май, Роза Мария Пенна, Эмма Коэн, Луис Сихес и другие-Описание: Метафорический фильм о судьбе диктатора (Ф. Рабаль) по собственному сценарию Г. Роша.-Сэмпл: http://multi-up.com/1063876-Качество видео: TVRip
Формат видео: AVI
Видео: 592x368 (1.61:1), 23.976 fps, XviD build 47 ~902 kbps avg, 0.17 bit/pixel
Аудио: 48 kHz, MPEG Layer 3, 2 ch, ~125.34 kbps avg
Формат субтитров: softsub (SRT)

MediaInfo

Format : AVI
Format/Info : Audio Video Interleave
File size : 700 MiB
Duration : 1h 34mn
Overall bit rate mode : Variable
Overall bit rate : 1 041 Kbps
Writing application : VirtualDubMod 1.5.4.1 (build 2178/release)
Writing library : VirtualDubMod build 2178/release
Video
ID : 0
Format : MPEG-4 Visual
Format profile : Advanced Simple@L5
Format settings, BVOP : Yes
Format settings, QPel : No
Format settings, GMC : No warppoints
Format settings, Matrix : Custom
Codec ID : XVID
Codec ID/Hint : XviD
Duration : 1h 34mn
Bit rate : 903 Kbps
Width : 592 pixels
Height : 368 pixels
Display aspect ratio : 16:10
Frame rate : 23.976 fps
Color space : YUV
Chroma subsampling : 4:2:0
Bit depth : 8 bits
Scan type : Progressive
Compression mode : Lossy
Bits/(Pixel*Frame) : 0.173
Stream size : 607 MiB (87%)
Writing library : XviD 1.2.0.dev47 (UTC 2006-11-01)
Audio
ID : 1
Format : MPEG Audio
Format version : Version 1
Format profile : Layer 3
Mode : Joint stereo
Mode extension : MS Stereo
Codec ID : 55
Codec ID/Hint : MP3
Duration : 1h 33mn
Bit rate mode : Variable
Bit rate : 125 Kbps
Nominal bit rate : 160 Kbps
Channel(s) : 2 channels
Sampling rate : 48.0 KHz
Compression mode : Lossy
Delay relative to video : 48ms
Stream size : 84.3 MiB (12%)
Alignment : Split accross interleaves
Interleave, duration : 24 ms (0.58 video frame)
Interleave, preload duration : 689 ms
Writing library : LAME3.97
Encoding settings : -m j -V 4 -q 2 -lowpass 17.5 --abr 160

Скриншот c названием фильма

Скриншоты

Фрагмент субтитров

4
00:00:37,655 --> 00:00:46,813
Я сделаю тебе штаны, как те,
Что носят фермеры,
5
00:00:47,714 --> 00:00:51,122
Я начну с шерсти
6
00:00:53,305 --> 00:00:56,137
и закончу с кожей!
7
00:00:56,577 --> 00:01:01,938
На большом ранчо,
Там, где я жил,
8
00:01:04,926 --> 00:01:07,954
Была девушка, которая
Радостно сказала мне
9
00:01:08,714 --> 00:01:12,653
Которая радостно сказала мне...
10
00:01:35,640 --> 00:01:38,743
Алло! Хорошо...
11
00:01:39,639 --> 00:01:40,824
Сеньорита, междугородний вызов.
Междугородний вызов.
12
00:01:43,262 --> 00:01:47,597
Я хочу иметь беседу,
с человеком в Эльдорадо.
13
00:01:48,663 --> 00:01:56,807
Да, с сеньорой Альба Морено.
22789900.
14
00:01:57,030 --> 00:02:02,196
И с сеньором Фредди Буллом,
Булл, через "Б".
15
00:02:02,956 --> 00:02:11,181
Да, у меня есть, 88743320.
Мое имя Диас II.
16
00:02:12,014 --> 00:02:15,745
Алло, алло, сенборита.
Я вас плохо слышу.
17
00:02:16,531 --> 00:02:22,303
Ах, Фредди, друг мой.
Я нуждаюсь в твоей любезности.
18
00:02:23,067 --> 00:02:26,068
Продай все твои плантации
кофе и сахара.
19
00:02:26,635 --> 00:02:29,515
Уильяму Бредли.
Да, да, правильно.
20
00:02:29,946 --> 00:02:31,819
Мне нужно, чтобы ты
вложил эти деньги
21
00:02:32,243 --> 00:02:34,051
в фонд культуры.
22
00:02:34,435 --> 00:02:38,018
Фонд культуры моего имени,
да, конечно.
23
00:02:38,076 --> 00:02:42,141
Ты должен продать за доллары.
200 миллионов, наличными.
24
00:02:42,837 --> 00:02:45,563
Да, фонд культуры.
Или точнее...
25
00:02:45,988 --> 00:02:50,036
Фонд науки и Человечества
Эммануэль...
26
00:02:50,580 --> 00:02:54,620
Да, моего имени.
Эммануэль Прадо Диас II. Да.
27
00:02:54,759 --> 00:02:57,823
Мне нужно нечто совершенное.
Прекрасное.
28
00:02:58,576 --> 00:03:01,047
Значимое.
Ты понимаешь, Фредди?
29
00:03:01,878 --> 00:03:05,784
Помнишь известного философа,
который сбежал из Эльдорадо?
30
00:03:06,159 --> 00:03:09,814
Да, да, Гонсалес Мора.
Гонсалес Мора, да.
31
00:03:10,454 --> 00:03:15,631
Скажи ему, чтобы вернулся в страну,
поскольку он сможет управлять фондом.
32
00:03:16,768 --> 00:03:18,784
Нет, нет, Фредди, нет.
33
00:03:19,640 --> 00:03:22,176
Это... нет.
34
00:03:24,071 --> 00:03:29,583
У меня новые чувства.
35
00:03:30,999 --> 00:03:32,583
Да, Фредди.
36
00:03:33,983 --> 00:03:37,763
Очень странные вещи,
мой дорогой друг.
37
00:03:39,138 --> 00:03:40,827
Момент, Фредди,
Момент.
38
00:03:44,564 --> 00:03:49,038
Слушайте меня... давай.
Алло.
39
00:03:50,875 --> 00:03:53,563
Сеньорита, я ничего не слышу.
40
00:03:53,619 --> 00:03:56,628
Да, вы меня слышите,
но я не слышу вас.
41
00:03:57,420 --> 00:03:59,699
Шторм?
Землетрясение?
42
00:04:01,714 --> 00:04:03,394
Вулканы?
43
00:04:04,853 --> 00:04:07,850
Я выслал все вулканы, сеньорита.
44
00:04:08,987 --> 00:04:11,260
Алло! Да?
45
00:04:12,107 --> 00:04:13,019
Альба!
46
00:04:14,844 --> 00:04:17,723
Альба, дорогая...
47
00:04:19,108 --> 00:04:21,762
Я так беспокоился
о твоем счастье.
48
00:04:22,337 --> 00:04:24,025
Да, я очень беспокоился.
49
00:04:25,827 --> 00:04:27,354
Альба!
50
00:04:28,265 --> 00:04:29,752
Это прекрасно.
51
00:04:30,314 --> 00:04:33,369
Твое имя так прекрасно.
52
00:04:34,825 --> 00:04:37,385
Да, уже...
53
00:04:37,892 --> 00:04:41,040
Уже 5 лет с тех пор,
как мы в последний раз виделись.
54
00:04:41,481 --> 00:04:45,027
А твой муж?
Он в порядке?
[teatrix.ru].t5667.torrent 
Торрент: Зарегистрирован [ 2015-10-09 00:55 ] · 5C02C28263BA9365589CAB796733685A43BA3E8F

Скачать .torrent

Скачать

14 KB

Статус: проверено
Скачан: 0 раз
Размер: 700 MB
terms.php



Быстрый ответ

Имя:

      
Для отправки сообщений необходимо включить JavaScript
Показать сообщения:    

Текущее время: 04-Дек 13:18

Часовой пояс: UTC + 3


Вы можете начинать темы
Вы можете отвечать на сообщения
Вы не можете редактировать свои сообщения
Вы не можете удалять свои сообщения
Вы не можете голосовать в опросах
Вы не можете прикреплять файлы к сообщениям
Вы можете скачивать файлы