Розетта / Rosetta (Жан-Пьер Дарденн / Jean-Pierre Dardenne, Люк Дарденн / Luc Dardenne) [1999, Франция, Бельгия, драма, BDRip] AVO (Кузнецов) + Sub Rus + Original Fre


 

[Цитировать]

Розетта / Rosetta
Страна: Франция, Бельгия
Жанр: драма
Год выпуска: 1999
Продолжительность: 01:34:22
Перевод: Авторский (одноголосый закадровый) - Кузнецов
Cубтитры: русские - Temperest
Оригинальная аудиодорожка: французский (отдельным файлом)
Режиссер: Жан-Пьер Дарденн / Jean-Pierre Dardenne, Люк Дарденн / Luc Dardenne
В ролях: Эмиль Декенн, Фабрицио Ронжиони, Оливье Гурмэ, Анн Эрно
Описание: Молодая и импульсивная Розетта, живя со своей матерью-алкоголичкой, преодолевая множество разочарований, будет делать всё возможное, чтобы найти работу. Первая сцена в фильме, как и все остальные, это сцена психологической борьбы. 18-летнюю Розетту увольняют с фабрики, потому что недлительный период её работы уже закончен. Девушка мечется в поисках новой работы. Горечь и отчаянье в мыслях молодой Розетты, она вынуждена действовать иначе...

Доп. информация: "Золотая пальмовая ветвь" Каннского кинофестиваля 1999 года, приз Каннского кинофестиваля1999 года за лучшую женскую роль, приз экуменического жюри.
Качество видео: BDRip Исходник
Формат видео: AVI
Видео: 608x352, 23.976 fps, XviD ~966 kbps avg, 0.188 bit/pixel
Аудио: 48 kHz, MPEG Layer 3, 2 ch, ~128.00 kbps avg - VO Кузнецов
Аудио 2: 48 kHz, MPEG Layer 3, 2 ch, ~128.00 kbps avg - французский (отдельным файлом)
Формат субтитров: softsub (SRT)

MediaInfo

General
Complete name               : C:\Video\Rosetta BDRip\Rosetta.BDRip.avi
Format                      : AVI
Format/Info                 : Audio Video Interleave
File size                   : 745 MiB
Duration                    : 1h 34mn
Overall bit rate            : 1 103 Kbps
Writing application         : VirtualDubMod 1.5.10.3 | www.virtualdub-fr.org || (build 2550/release)
Writing library             : VirtualDubMod build 2550/release
Video
ID                          : 0
Format                      : MPEG-4 Visual
Format profile              : Advanced Simple@L5
Format settings, BVOP       : 2
Format settings, QPel       : No
Format settings, GMC        : No warppoints
Format settings, Matrix     : Default (H.263)
Codec ID                    : XVID
Codec ID/Hint               : XviD
Duration                    : 1h 34mn
Bit rate                    : 966 Kbps
Width                       : 608 pixels
Height                      : 352 pixels
Display aspect ratio        : 1.727
Frame rate                  : 23.976 fps
Color space                 : YUV
Chroma subsampling          : 4:2:0
Bit depth                   : 8 bits
Scan type                   : Progressive
Compression mode            : Lossy
Bits/(Pixel*Frame)          : 0.188
Stream size                 : 652 MiB (88%)
Writing library             : XviD 1.2.1 (UTC 2008-12-04)
Audio
ID                          : 1
Format                      : MPEG Audio
Format version              : Version 1
Format profile              : Layer 3
Codec ID                    : 55
Codec ID/Hint               : MP3
Duration                    : 1h 34mn
Bit rate mode               : Constant
Bit rate                    : 128 Kbps
Channel(s)                  : 2 channels
Sampling rate               : 48.0 KHz
Compression mode            : Lossy
Stream size                 : 86.4 MiB (12%)
Alignment                   : Aligned on interleaves
Interleave, duration        : 42 ms (1.00 video frame)
Interleave, preload duratio : 504 ms
Writing library             : LAME3.99r
Encoding settings           : -m s -V 4 -q 0 -lowpass 17 -b 128

Скриншот c названием фильма

Скриншоты




Показать сообщения:    

Текущее время: 09-Дек 12:44

Часовой пояс: UTC + 3


Вы не можете начинать темы
Вы не можете отвечать на сообщения
Вы не можете редактировать свои сообщения
Вы не можете удалять свои сообщения
Вы не можете голосовать в опросах
Вы не можете прикреплять файлы к сообщениям
Вы не можете скачивать файлы