Белый шарик / Белый шар / Badkonake sefid / The White Balloon (Джафар Панахи / Jafar Panahi) [1995, Иран, драма, семейный, DVDRip] Sub (Rus, Eng) + Original


Статистика раздачи [Обновить пиров]
Размер:  1.45 GB   |    Зарегистрирован:  1 год 2 месяца   |    Скачан:  0 раз

Полного источника не было: Никогда

 
   
 
 
 

[Цитировать]

Белый шарик / Badkonake sefid / The White Balloon
Страна: Иран
Жанр: драма, семейный
Год выпуска: 1995
Продолжительность: 01:20:57
Перевод: Субтитры (by FYNTIC)
Cубтитры: русские, английские
Оригинальная аудиодорожка: персидский (фарси)
Режиссер: Джафар Панахи / Jafar Panahi
В ролях: Айда Мохаммадхани, Мосен Кафили, Ферештех Садре Орафай, Анна Борковска, Мохаммад Шахани, Мохаммед Бахтияр
О фильме: Это добрый и светлый фильм о детях. Сюжет прост. Девочка просит у мамы деньги на золотую рыбку к Новому Году (по мусульманскому календарю). Скрепя сердце, мать раскошеливается и фильм перерастает в своеобразное детское роад-муви по Тегерану. На мой взгляд, главная фишка картины - сама главная героиня. Маленькая девочка просто потрясающа и играет, сама того не осознавая, как полноценная актриса. (FYNTIC)
Доп. информация: http://www.imdb.com/title/tt0112445/
Фильм был удостоен Золотой Камеры Канн-95.
Сэмпл: http://sendfile.su/1147683
Качество видео: DVDRip
Формат видео: AVI
Видео: 656x400 (1.31:1), 25 fps, XviD build 73 ~2299 kbps avg, 0.35 bit/pixel
Аудио: 48 kHz, AC3 Dolby Digital, 2/0 (L,R) ch, ~256 kbps avg
Формат субтитров: softsub (SRT)

MediaInfo

Общее
Полное имя : H:\Фильмы\Badkonake.sefid.1995.DVDRip.sub.rus.eng\Badkonake sefid.avi
Формат : AVI
Формат/Информация : Audio Video Interleave
Размер файла : 1,45 Гбайт
Продолжительность : 1 ч. 20 м.
Общий поток : 2564 Кбит/сек
Программа кодирования : VirtualDubMod 1.5.10.2 (build 2540/release)
Библиотека кодирования : VirtualDubMod build 2540/release
Авторское право : rip by Judas_X
Видео
Идентификатор : 0
Формат : MPEG-4 Visual
Профиль формата : Advanced Simple@L5
Параметр BVOP формата : 1
Параметр QPel формата : Нет
Параметр GMC формата : Без точки перехода
Параметр матрицы формата : Выборочная
Идентификатор кодека : XVID
Идентификатор кодека/Подсказка : XviD
Продолжительность : 1 ч. 20 м.
Битрейт : 2299 Кбит/сек
Ширина : 656 пикселей
Высота : 400 пикселей
Соотношение сторон : 16:10
Частота кадров : 25,000 кадров/сек
Цветовое пространство : YUV
Субдискретизация насыщенности : 4:2:0
Битовая глубина : 8 бит
Тип развёртки : Прогрессивная
Метод сжатия : С потерями
Бит/(Пиксели*Кадры) : 0.350
Размер потока : 1,30 Гбайт (90%)
Библиотека кодирования : XviD 73
Аудио
Идентификатор : 1
Формат : AC-3
Формат/Информация : Audio Coding 3
Расширение режима : CM (complete main)
Параметр Endianness формата : Big
Идентификатор кодека : 2000
Продолжительность : 1 ч. 20 м.
Вид битрейта : Постоянный
Битрейт : 256 Кбит/сек
Каналы : 2 канала
Расположение каналов : Front: L R
Частота : 48,0 КГц
Битовая глубина : 16 бит
Метод сжатия : С потерями
Размер потока : 148 Мбайт (10%)
Выравнивание : Разделение по промежуткам
Продолжительность промежутка : 40 мс. (1,00 видеокадр)
Время предзагрузки промежутка : 500 мс.

Пример субтитров

1
00:00:08,560 --> 00:00:12,348
Белый шарик
2
00:00:13,360 --> 00:00:16,670
Сценарий: Аббас Киаростами
3
00:01:02,080 --> 00:01:05,868
Декорации, монтаж и режиссура:
Джафар Панахи
4
00:01:18,360 --> 00:01:20,794
Дорогие слушатели,
желаем вам приятного дня.
5
00:01:20,960 --> 00:01:23,713
Сейчас семь минут шестого.
6
00:01:23,880 --> 00:01:26,872
До Нового Года остается ровно...
7
00:01:27,040 --> 00:01:30,749
Один час, 28 минут и 30 секунд.
8
00:04:02,360 --> 00:04:03,998
Так что, этот джентльмен не прав?
9
00:04:04,160 --> 00:04:06,230
Да, он несет чушь.
10
00:04:06,400 --> 00:04:08,152
Могу я задать еще один вопрос?
11
00:04:08,320 --> 00:04:09,673
Любой, какой захочешь!
12
00:04:09,840 --> 00:04:13,549
Ты можешь удалить жало этого животного?
13
00:04:13,720 --> 00:04:16,712
У него нет жала, мой друг!
14
00:04:16,880 --> 00:04:20,509
Это не оса и не скорпион!
15
00:04:20,680 --> 00:04:23,752
- Так у змеи нет жала?
- Нет, есть только зубы!
16
00:04:23,920 --> 00:04:26,354
- Ядовитые зубы?
- Конечно!
17
00:04:26,520 --> 00:04:28,317
Так что теперь вы знаете,
18
00:04:28,520 --> 00:04:30,590
Что у змеи ядовитые зубы,
19
00:04:30,800 --> 00:04:34,031
И вы также знаете, что
все эти змеи опасны.
20
00:04:34,960 --> 00:04:36,473
Так что с вашего разрешения,
[teatrix.ru].t5669.torrent 
Торрент: Зарегистрирован [ 2015-10-09 00:55 ] · 1848A57D30A29D661560D7DF96A9A955FEBB7D6B

Скачать .torrent

Скачать

15 KB

Статус: проверено
Скачан: 0 раз
Размер: 1.45 GB
terms.php



Быстрый ответ

Имя:

      
Для отправки сообщений необходимо включить JavaScript
Показать сообщения:    

Текущее время: 11-Дек 03:21

Часовой пояс: UTC + 3


Вы можете начинать темы
Вы можете отвечать на сообщения
Вы не можете редактировать свои сообщения
Вы не можете удалять свои сообщения
Вы не можете голосовать в опросах
Вы не можете прикреплять файлы к сообщениям
Вы можете скачивать файлы