За облаками / Par dela les nuages / Al di là delle nuvole (Микеланджело Антониони / Michelangelo Antonioni, Вим Вендерс / Wim Wenders) [1995, Германия, Франция, Италия, драма, DVDRip] AVO (Дьяконов) + Sub Rus + Original Fre


Статистика раздачи [Обновить пиров]
Размер:  1.39 GB   |    Зарегистрирован:  1 год 2 месяца   |    Скачан:  0 раз

Полного источника не было: Никогда

 
   
 
 
 

[Цитировать]

За облаками / Par dela les nuages / Al di là delle nuvole
Страна: Германия, Франция, Италия
Жанр: драма
Год выпуска: 1995
Продолжительность: 01:44:55
Дистрибьютор: Мост-Медиа
Перевод: Авторский (одноголосый закадровый) Константин Дьяконов
Cубтитры: русские (SRT)
Оригинальная аудиодорожка: французский
Режиссер: Микеланджело Антониони / Michelangelo Antonioni, Вим Вендерс / Wim Wenders
В ролях:
Фанни Ардан
Кьяра Казелли
Ирен Жакоб
Джон Малкович
Софи Марсо
Венсан Перес
Жан Рено
Ким Росси Стюарт
Инес Састре
Питер Уэллер
Описание:
Встречи с незнакомцами, наблюдения, прогулки с фотоаппаратом по улицам французских и итальянских городов вдохновляют режиссера фильма на четыре рассказа о любви. В основе этих историй — желание, убийство, расставание и вера.
Фильм по книге воспоминаний Антониони, состоящий из нескольких мелодраматических историй, поставленный наполовину парализованным режиссером. Снимать эту картину Антониони помогал Вим Вендерс.
Сэмпл: http://multi-up.com/1063384
Качество видео: DVDRip
Формат видео: AVI
Видео: 696x432 (1.61:1), 25 fps, DivX Codec 6.8.5 ~1493 kbps avg, 0.20 bit/pixel
Аудио 1: 48 kHz, AC3 Dolby Digital, 2/0 (L,R) ch, ~192 kbps, Russian
Аудио 2: 48 kHz, AC3 Dolby Digital, 2/0 (L,R) ch, ~192 kbps, Fre+Eng+It

MediaInfo

GeneralComplete name : Par dela les nuages.aviFormat : AVIFormat/Info : Audio Video InterleaveFile size : 1.39 GiBDuration : 1h 44mnOverall bit rate : 1 893 Kbps
VideoID : 0Format : MPEG-4 VisualFormat settings, BVOP : 1Format settings, QPel : NoFormat settings, GMC : No warppointsFormat settings, Matrix : Default (H.263)Codec ID : DX50Codec ID/Hint : DivX 5Duration : 1h 44mnBit rate : 1 494 KbpsWidth : 696 pixelsHeight : 432 pixelsDisplay aspect ratio : 1.611Frame rate : 25.000 fpsColor space : YUVChroma subsampling : 4:2:0Bit depth : 8 bitsScan type : ProgressiveCompression mode : LossyBits/(Pixel*Frame) : 0.199Stream size : 1.10 GiB (79%)Writing library : DivX 6.8.5 (UTC 2009-08-20)
Audio #1ID : 1Format : AC-3Format/Info : Audio Coding 3Mode extension : CM (complete main)Codec ID : 2000Duration : 1h 44mnBit rate mode : ConstantBit rate : 192 KbpsChannel(s) : 2 channelsChannel positions : Front: L RSampling rate : 48.0 KHzBit depth : 16 bitsCompression mode : LossyStream size : 144 MiB (10%)Alignment : Aligned on interleavesInterleave, duration : 40 ms (1.00 video frame)Interleave, preload duration : 512 ms
Audio #2ID : 2Format : AC-3Format/Info : Audio Coding 3Mode extension : CM (complete main)Codec ID : 2000Duration : 1h 44mnBit rate mode : ConstantBit rate : 192 KbpsChannel(s) : 2 channelsChannel positions : Front: L RSampling rate : 48.0 KHzBit depth : 16 bitsCompression mode : LossyStream size : 144 MiB (10%)Alignment : Aligned on interleavesInterleave, duration : 40 ms (1.00 video frame)Interleave, preload duration : 512 ms

Скриншот c названием фильма

Скриншоты




Исходник
[teatrix.ru].t5670.torrent 
Торрент: Зарегистрирован [ 2015-10-09 00:55 ] · F296616FDDEB72A8592563B6234655D76C992805

Скачать .torrent

Скачать

14 KB

Статус: проверено
Скачан: 0 раз
Размер: 1.39 GB
terms.php



Быстрый ответ

Имя:

      
Для отправки сообщений необходимо включить JavaScript
Показать сообщения:    

Текущее время: 10-Дек 13:49

Часовой пояс: UTC + 3


Вы можете начинать темы
Вы можете отвечать на сообщения
Вы не можете редактировать свои сообщения
Вы не можете удалять свои сообщения
Вы не можете голосовать в опросах
Вы не можете прикреплять файлы к сообщениям
Вы можете скачивать файлы