Власть чувств / Die Macht der Gefühle (Александр Клюге / Alexander Kluge) [1983, Германия (ФРГ), Художественный, документальный, экспериментальный, DVDRip-AVC] DVO + Sub Rus + Sub Eng + Original Ger


Статистика раздачи [Обновить пиров]
Размер:  1.44 GB   |    Зарегистрирован:  1 год 1 месяц   |    Скачан:  0 раз

Полного источника не было: Никогда

 
   
 
 
 

[Цитировать]

Власть чувств / Die Macht der Gefühle
Жанр: Художественный, документальный, экспериментальный
Страна: Германия (ФРГ)
Студия: Kairos-Film, Zweites Deutsches Fernsehen (ZDF)
Год выпуска: 1983
Продолжительность: 01:50:03
Перевод: Профессиональный (двухголосый закадровый) - СВ-дубль
Cубтитры: русские + английские
Оригинальная аудиодорожка: немецкий
Режиссер: Александр Клюге / Alexander Kluge
В ролях:
Ханнелор Хогер / Hannelore Hoger ... Angeklagte G. / Frau Bärlamm
Александра Клюге / Alexandra Kluge ... Frau Pichota
Эдгар М. Бёльке / Edgar M. Böhlke ... Kammersänger
Клаус Веннеманн / Klaus Wennemann ... Richter
Беате Холле / Beate Holle ... Weggeworfene Geliebte
Сюзанна фон Борсоди / Suzanne von Borsody ... Knautsch-Betty - Prostituierte
Барбара Ауэр / Barbara Auer ... Mäxchen
Эрвин Шершель / Erwin Scherschel ... Brigadegeneral
Уве Карстен Кох / Uwe Karsten Koch ... Vergewaltiger
Даниэль Люёнд / Daniel Lüönd ... Manfred Schmidt
Паулюс Манкер / Paulus Manker ... Kurt Schleich
Рут Вольшлегель / Ruth Wohlschlegel ... Frau Gerti
Вильфрид Эльсте / Wilfried Elste ... Feuerlöschkommandant Schönecke
Карлос Краузе / Carlos Krause ... Mordopfer Ante Allewich
Описание: Вымышленные герои и реальные персоны из мира кино, политики, музыки, телевидения. Фильм рассказывает 26 историй, но у всех одинаковый корень: власть чувств…
Большое спасибо за:
- русскую звуковую дорожку с двухоголосой озвучкой - sulfum
- русские субтитры - Валерия Вайзер
- английские субтитры - Alexander Zuckrow
IMDb = 7,1/10 from 94 users - http://www.imdb.com/title/tt0085882/
Кинопоиск = 6.364 (20) - http://www.kinopoisk.ru/film/56643/
Венецианский кинофестиваль, 1983 год
Победитель (1):
- Приз международной ассоциации кинокритиков (ФИПРЕССИ) (Александр Клюге)
Номинация:
- Золотой лев (Александр Клюге)
ПРОСЬБА к СКАЧАВШИМ. НЕ УХОДИТЕ С РАЗДАЧИ, ПОМОГИТЕ ДРУГИМ СКАЧАТЬ!!!
ВНИМАНИЕ!!! РИП ФОРМАТА mkv (кодек H.264) ВОСПРОИЗВОДИТСЯ НЕ НА ВСЕХ БЫТОВЫХ ВИДЕОПЛЕЕРАХ!!!
Качество видео: DVDRip-AVC
Формат видео: MKV
Видео: AVC (H.264), 672@715x536 (1.33:1), 25.00fps, 1414 Kbps avg, 0.157 bit/pixel
Аудио #1: AC3, 48 KHz, stereo (2 ch), 192 Kbps - русский (СВ-дубль)
Аудио #2: AC3, 48 KHz, stereo (2 ch), 224 Kbps - немецкий

MediaInfo

General
Complete name : D:\torrents\Die Macht der Gefuhle (1983, rus_MVO+ger+sub_rus+sub_eng).mkv
Format : Matroska
File size : 1.44 GiB
Duration : 1h 50mn
Overall bit rate : 1 867 Kbps
Encoded date : UTC 2015-08-17 04:02:12
Writing application : mkvmerge v8.3.0 ('Over the Horizon') 64bit
Writing library : libebml v1.3.1 + libmatroska v1.4.2
Video
ID : 1
Format : AVC
Format/Info : Advanced Video Codec
Format profile : High@L4.0
Format settings, CABAC : Yes
Format settings, ReFrames : 16 frames
Muxing mode : Container profile=Unknown@4.0
Codec ID : V_MPEG4/ISO/AVC
Duration : 1h 50mn
Bit rate : 1 414 Kbps
Nominal bit rate : 1 450 Kbps
Width : 672 pixels
Height : 536 pixels
Display aspect ratio : 4:3
Original display aspect ratio : 5:4
Frame rate : 25.000 fps
Resolution : 8 bits
Colorimetry : 4:2:0
Scan type : Progressive
Bits/(Pixel*Frame) : 0.157
Stream size : 1.09 GiB (76%)
Writing library : x264 core 130 r2273 b3065e6
Encoding settings : cabac=1 / ref=16 / deblock=1:0:0 / analyse=0x3:0x133 / me=umh / subme=10 / psy=1 / psy_rd=1.00:0.00 / mixed_ref=1 / me_range=24 / chroma_me=1 / trellis=2 / 8x8dct=1 / cqm=0 / deadzone=21,11 / fast_pskip=1 / chroma_qp_offset=-2 / threads=30 / lookahead_threads=4 / sliced_threads=0 / nr=0 / decimate=1 / interlaced=0 / bluray_compat=0 / constrained_intra=0 / bframes=8 / b_pyramid=2 / b_adapt=2 / b_bias=0 / direct=3 / weightb=1 / open_gop=0 / weightp=2 / keyint=250 / keyint_min=25 / scenecut=40 / intra_refresh=0 / rc_lookahead=60 / rc=2pass / mbtree=1 / bitrate=1450 / ratetol=1.0 / qcomp=0.60 / qpmin=0 / qpmax=69 / qpstep=4 / cplxblur=20.0 / qblur=0.5 / ip_ratio=1.40 / aq=1:1.00
Audio #1
ID : 2
Format : AC-3
Format/Info : Audio Coding 3
Codec ID : A_AC3
Duration : 1h 50mn
Bit rate mode : Constant
Bit rate : 192 Kbps
Channel(s) : 2 channels
Channel positions : Front: L R
Sampling rate : 48.0 KHz
Video delay : 12ms
Stream size : 151 MiB (10%)
Language : Russian
Audio #2
ID : 3
Format : AC-3
Format/Info : Audio Coding 3
Codec ID : A_AC3
Duration : 1h 50mn
Bit rate mode : Constant
Bit rate : 224 Kbps
Channel(s) : 2 channels
Channel positions : Front: L R
Sampling rate : 48.0 KHz
Stream size : 176 MiB (12%)
Language : German
Text #1
ID : 4
Format : UTF-8
Codec ID : S_TEXT/UTF8
Codec ID/Info : UTF-8 Plain Text
Language : Russian
Text #2
ID : 5
Format : UTF-8
Codec ID : S_TEXT/UTF8
Codec ID/Info : UTF-8 Plain Text
Language : German

Скриншот c названием фильма

Скриншоты в анаформном виде

Скриншоты в разрешение 715 x 536

[teatrix.ru].t5671.torrent 
Торрент: Зарегистрирован [ 2015-10-09 00:55 ] · C0FA1D3C89286574C3B4367511B7E14A5207BC43

Скачать .torrent

Скачать

15 KB

Статус: проверено
Скачан: 0 раз
Размер: 1.44 GB
terms.php



Быстрый ответ

Имя:

      
Для отправки сообщений необходимо включить JavaScript
Показать сообщения:    

Текущее время: 03-Дек 20:45

Часовой пояс: UTC + 3


Вы можете начинать темы
Вы можете отвечать на сообщения
Вы не можете редактировать свои сообщения
Вы не можете удалять свои сообщения
Вы не можете голосовать в опросах
Вы не можете прикреплять файлы к сообщениям
Вы можете скачивать файлы