Драма / Drama (Матиас Лира / Matias Lira) [2010, Чили, драма, DVDRip] VO (Кошкин)


Статистика раздачи [Обновить пиров]
Размер:  747 MB   |    Зарегистрирован:  1 год 2 месяца   |    Скачан:  0 раз

Полного источника не было: Никогда

 
   
 
 
 

[Цитировать]

Драма / Drama- Страна: Чили
Жанр: драма
Год выпуска: 2010
Продолжительность: 01:19:37-Перевод: Одноголосый закадровый Василий Кошкин
Cубтитры: нет-Режиссер: Матиас Лира / Matias Lira
В ролях: Эйсебио Аренас, Диего Руис, Исидора Уррейхола, Джейм МакМанус, Фернанда Урехола, Бенджамин Викуна, Диего Муноз, Алехандро Трехо-Описание: Трое студентов театральной студии, под влиянием своего преподавателя, практикующего теорию Антонен Арто, начинают экспериментировать со своими жизнями, находя реальные эмоции и ситуации, чтобы потом воплотить их на сцене. Желание стать лучшими актерами приводят ребят к их самым тёмным сторонам и выходят за границы дозволенного…-Сэмпл-Качество видео: DVDRip
Формат видео: AVI
Видео: 656x368 (1.78:1), 23.976 fps, XviD build 62 ~1174 kbps avg, 0.20 bit/pixel
Аудио: 48 kHz, MPEG Layer 3, 2 ch, ~128.00 kbps avg

MediaInfo

General
Complete name : E:\Downloads\Drama.2010.VO.avi
Format : AVI
Format/Info : Audio Video Interleave
File size : 747 MiB
Duration : 1h 19mn
Overall bit rate : 1 312 Kbps
Video
ID : 0
Format : MPEG-4 Visual
Format profile : Advanced Simple@L5
Format settings, BVOP : No
Format settings, QPel : No
Format settings, GMC : No warppoints
Format settings, Matrix : Default (H.263)
Codec ID : XVID
Codec ID/Hint : XviD
Duration : 1h 19mn
Bit rate : 1 175 Kbps
Width : 656 pixels
Height : 368 pixels
Display aspect ratio : 16:9
Frame rate : 23.976 fps
Color space : YUV
Chroma subsampling : 4:2:0
Bit depth : 8 bits
Scan type : Progressive
Compression mode : Lossy
Bits/(Pixel*Frame) : 0.203
Stream size : 669 MiB (90%)
Writing library : XviD 62
Audio
ID : 1
Format : MPEG Audio
Format version : Version 1
Format profile : Layer 3
Codec ID : 55
Codec ID/Hint : MP3
Duration : 1h 19mn
Bit rate mode : Constant
Bit rate : 128 Kbps
Channel(s) : 2 channels
Sampling rate : 48.0 KHz
Compression mode : Lossy
Stream size : 72.9 MiB (10%)
Alignment : Split accross interleaves
Interleave, duration : 42 ms (1.02 video frame)
Writing library : LAMELAME_MAJOR_VERSI

Скриншоты

[teatrix.ru].t5672.torrent 
Торрент: Зарегистрирован [ 2015-10-09 00:55 ] · 7A40FEE5128531EDE67990DC64D2414D3ADF5890

Скачать .torrent

Скачать

15 KB

Статус: проверено
Скачан: 0 раз
Размер: 747 MB
terms.php



Быстрый ответ

Имя:

      
Для отправки сообщений необходимо включить JavaScript
Показать сообщения:    

Текущее время: 09-Дек 04:58

Часовой пояс: UTC + 3


Вы можете начинать темы
Вы можете отвечать на сообщения
Вы не можете редактировать свои сообщения
Вы не можете удалять свои сообщения
Вы не можете голосовать в опросах
Вы не можете прикреплять файлы к сообщениям
Вы можете скачивать файлы