Адамовы яблоки / Adams æbler / Adams aebler / Adam's Apples (Андерс Томас Йенсен / Anders Thomas Jensen) [2005, Дания, Германия, Драма, комедия, криминал, BDRip] MVO (Р. Габидуллин, П. Гланц и И. Королева)


 

[Цитировать]

Адамовы яблоки / Adams æbler / Adams aebler / Adam's Apples- Год выпуска: 2005
Страна: Дания, Германия
Жанр: Драма, комедия, криминал
Продолжительность: 01:35:15
Перевод: Профессиональный (многоголосый, закадровый) Р. Габидуллин, П. Гланц и И. Королева
Субтитры: нет-Режиссер: Андерс Томас Йенсен / Anders Thomas Jensen
В ролях: Ульрих Томсен, Мадс Миккельсен, Николас Бро, Паприка Стеэн, Али Казим, Оле Теструп, Николай Ли Каас, Гирд Лофквист, Ларс Ранте, Петер Райхгардт
О фильме: Нео-нацист, приговорённый к общественным работам в церкви, сталкивается с крайне праведным священником.-Релиз:
Автор: The next
Качество: BDRip (источник: HDBits / Blu-Ray Disc / 1080p)
Формат: AVI
Видео: 704x304 (2.32:1), 23.976 fps, XviD build 67 ~1796 kbps avg, 0.35 bit/pixel
Аудио: 48 kHz, AC3 Dolby Digital, 3/2 (L,C,R,l,r) + LFE ch, ~384.00 kbps avg
Размер: 1491.64 Mb (1/3 DVD)
Скачать: Семпл-

Кадры из фильма


-

Mi

Формат : AVI
Формат/Информация : Audio Video Interleave
Размер файла : 1,46 Гбайт
Продолжительность : 1 ч. 35 м.
Общий поток : 2189 Кбит/сек
Название фильма : Адамовы яблоки / Adam's Apples (2005) BDRip
Режиссёр : The next
Программа кодирования : VirtualDubMod 1.5.10.2 (build 2540/release)
Примечание : 14.08.2015
Видео
Идентификатор : 0
Формат : MPEG-4 Visual
Профиль формата : Advanced Simple@L5
Параметр BVOP формата : 1
Параметр QPel формата : Нет
Параметр GMC формата : Без точки перехода
Параметр матрицы формата : Выборочная
Идентификатор кодека : XVID
Идентификатор кодека/Подсказка : XviD
Продолжительность : 1 ч. 35 м.
Битрейт : 1796 Кбит/сек
Ширина : 704 пикселя
Высота : 304 пикселя
Соотношение сторон : 2,35:1
Частота кадров : 23,976 кадра/сек
Цветовое пространство : YUV
Субдискретизация насыщенности : 4:2:0
Битовая глубина : 8 бит
Тип развёртки : Прогрессивная
Метод сжатия : С потерями
Бит/(Пиксели*Кадры) : 0.350
Размер потока : 1,20 Гбайт (82%)
Библиотека кодирования : XviD 67
Аудио
Идентификатор : 1
Формат : AC-3
Формат/Информация : Audio Coding 3
Расширение режима : CM (complete main)
Параметр Endianness формата : Big
Идентификатор кодека : 2000
Продолжительность : 1 ч. 35 м.
Вид битрейта : Постоянный
Битрейт : 384 Кбит/сек
Каналы : 6 каналов
Расположение каналов : Front: L C R, Side: L R, LFE
Частота : 48,0 КГц
Битовая глубина : 16 бит
Метод сжатия : С потерями
Размер потока : 261 Мбайт (18%)
Выравнивание : Разделение по промежуткам
Продолжительность промежутка : 42 мс. (1,00 видеокадр)
Время предзагрузки промежутка : 500 мс.

-
* Тут вот какое дело. Понравился мне один фильм, да перевода к нему хорошего не было. Называется кино "Адамовы Яблоки", 2005-й год. В роли священника Ивана снимается будущий Доктор Лектор из сериала "Ганнибал" Мадс Миккельсен. А уж увидеть Кая Проктора из сериала "Банши" молодым и в меру упитанным нацистом Адамом вообще неожиданно.
В общем, попросил я ребят помочь. И вот результат. Руслан Габидуллин (Кубик в Кубе) в роли нациста Адама. Ваш покорный слуга в остальных мужских ролях. Плюс Инна Королёва в роли алкоголички. Плюс точный, хотя и матерный, перевод Лёни Векшина. © Петр Гланц
* Присутствует плавующий кроп в некоторых сценах фильма. На просмотр не влияет, обрезать не стал.



Показать сообщения:    

Текущее время: 09-Дек 12:38

Часовой пояс: UTC + 3


Вы не можете начинать темы
Вы не можете отвечать на сообщения
Вы не можете редактировать свои сообщения
Вы не можете удалять свои сообщения
Вы не можете голосовать в опросах
Вы не можете прикреплять файлы к сообщениям
Вы не можете скачивать файлы