Надежда умирает последней / Better Things (Дуан Хопкинс / Duane Hopkins) [2008, Великобритания, драма, DVDRip-AVC] Sub Rus + Original Eng


Статистика раздачи [Обновить пиров]
Размер:  1.34 GB   |    Зарегистрирован:  1 год 2 месяца   |    Скачан:  0 раз

Полного источника не было: Никогда

 
   
 
 
 

[Цитировать]

Надежда умирает последней / Better Things
Страна: Великобритания
Жанр: Драма
Год выпуска: 2008
Продолжительность: 01:29:35
Перевод: Субтитры (Chillerama)
Cубтитры: Русские
Оригинальная аудиодорожка: Английский
Режиссер: Дуан Хопкинс / Duane Hopkins
В ролях: Рэйчел Макинтайр, Эмма Купер, Че Корр, Фредди Канлифф, Тара Баллард, Бетти Бенч, Фрэнк Бенч, Патриция Лавленд
Описание: «Почему она думала, что если полюбит, то жизнь станет проще?» — взвинченно грустным тоном сообщает женский голос, пока оператор показывает деревья. Деревья сменяет труп со шприцем в руке. Труп со шприцем сменяют похороны. Похороны сменяет титр «Better Things».
Доп. информация: Второй полнометражный фильм англичанина Дуэйна Хопкинса скоро покажут в Венеции, а первый — кромешная тьма, в которой несколько молодых людей и несколько пожилых пытаются найти какую-нибудь спичку. У Роба умерла девушка, а теперь он умирает сам. Ларри и Рейчел изменяют друг другу и никогда не помирятся. Гейл не может выходить на улицу, читает депрессивные книжки и просит психолога заглядывать почаще. Дэвиду грустно, потому что его подружка должна уехать. Все истории связаны чем-нибудь незначительным и смонтированы скачкообразно на манер недавнего Southcliffe, в связи с чем некоторое время уходит на то, чтобы разобраться, кто почему страдает и как кому можно помочь. Но помочь никому и никак нельзя: Better Things — притча о деструктивности любви, где весь фильм терпеливо ждешь зарождения тепла, а оно не зарождается. В этом и часть режиссерской формулировки: после того, как любовь ранила однажды, к ней уже не вернуться. Поначалу кажется, что кино фальшивит в желании быть очень мрачным, но в конце концов это оказывается мощным художественным решением: именно здесь нужно принять другие правила игры, и тогда гипертрофированный британский соцреализм превратится в философичную сказку с многоточиями.

Сэмпл: http://sendfile.su/1143166
Качество видео: DVDRip-AVC
Формат видео: MKV
Видео: MPEG-4 AVC, 714x438@1015x438, 25.000 fps, 1951 kbps
Аудио: AC3, 48.0 KHz, 192 kbps, 16 bits, 2 ch

MediaInfo

General
Unique ID : 241127076369770220840918297200264618354 (0xB56762BBD04B3749ABC80A126FA22172)
Complete name : R:\Distribution\Better Things (2008).mkv
Format : Matroska
Format version : Version 4 / Version 2
File size : 1.34 GiB
Duration : 1h 29mn
Overall bit rate : 2 145 Kbps
Encoded date : UTC 2015-08-04 14:39:37
Writing application : mkvmerge v7.8.0 ('River Man') 32bit built on Mar 27 2015 16:18:02
Writing library : libebml v1.3.1 + libmatroska v1.4.2
DURATION : 01:24:42.372000000
NUMBER_OF_FRAMES : 381
NUMBER_OF_BYTES : 19733
_STATISTICS_WRITING_APP : mkvmerge v7.8.0 ('River Man') 32bit built on Mar 27 2015 16:18:02
_STATISTICS_WRITING_DATE_UTC : 2015-08-04 14:39:37
_STATISTICS_TAGS : BPS DURATION NUMBER_OF_FRAMES NUMBER_OF_BYTES
Video
ID : 1
Format : AVC
Format/Info : Advanced Video Codec
Format profile : High@L3.1
Format settings, CABAC : Yes
Format settings, ReFrames : 8 frames
Codec ID : V_MPEG4/ISO/AVC
Duration : 1h 29mn
Bit rate : 1 951 Kbps
Width : 714 pixels
Height : 438 pixels
Display aspect ratio : 2.35:1
Original display aspect ratio : 2.35:1
Frame rate mode : Constant
Frame rate : 25.000 fps
Color space : YUV
Chroma subsampling : 4:2:0
Bit depth : 8 bits
Scan type : Progressive
Bits/(Pixel*Frame) : 0.250
Stream size : 1.20 GiB (89%)
Writing library : x264 core 130 r2273 b3065e6
Encoding settings : cabac=1 / ref=8 / deblock=1:-3:-3 / analyse=0x3:0x133 / me=umh / subme=10 / psy=1 / psy_rd=1.00:0.00 / mixed_ref=1 / me_range=24 / chroma_me=1 / trellis=2 / 8x8dct=1 / cqm=0 / deadzone=21,11 / fast_pskip=0 / chroma_qp_offset=-2 / threads=3 / lookahead_threads=1 / sliced_threads=0 / nr=0 / decimate=0 / interlaced=0 / bluray_compat=0 / constrained_intra=0 / bframes=5 / b_pyramid=2 / b_adapt=2 / b_bias=0 / direct=3 / weightb=1 / open_gop=0 / weightp=2 / keyint=250 / keyint_min=25 / scenecut=40 / intra_refresh=0 / rc_lookahead=100 / rc=2pass / mbtree=1 / bitrate=1951 / ratetol=1.0 / qcomp=0.60 / qpmin=0 / qpmax=69 / qpstep=4 / cplxblur=20.0 / qblur=0.5 / vbv_maxrate=17500 / vbv_bufsize=17500 / nal_hrd=none / ip_ratio=1.40 / aq=1:1.00
Language : English
Default : Yes
Forced : No
DURATION : 01:29:35.560000000
NUMBER_OF_FRAMES : 134389
NUMBER_OF_BYTES : 1311031445
_STATISTICS_WRITING_APP : mkvmerge v7.8.0 ('River Man') 32bit built on Mar 27 2015 16:18:02
_STATISTICS_WRITING_DATE_UTC : 2015-08-04 14:39:37
_STATISTICS_TAGS : BPS DURATION NUMBER_OF_FRAMES NUMBER_OF_BYTES
Audio
ID : 2
Format : AC-3
Format/Info : Audio Coding 3
Mode extension : CM (complete main)
Format settings, Endianness : Big
Codec ID : A_AC3
Duration : 1h 29mn
Bit rate mode : Constant
Bit rate : 192 Kbps
Channel(s) : 2 channels
Channel positions : Front: L R
Sampling rate : 48.0 KHz
Bit depth : 16 bits
Compression mode : Lossy
Stream size : 123 MiB (9%)
Default : Yes
Forced : No

Фрагмент субтитров

85
00:19:21,900 --> 00:19:23,820
Думаешь, Роб колется сейчас?
86
00:19:23,855 --> 00:19:25,697
Не знаю.
87
00:19:28,500 --> 00:19:30,377
Скорее всего...
88
00:19:31,500 --> 00:19:33,420
...если Тесс кололась.
89
00:19:33,455 --> 00:19:34,489
Может быть.
90
00:19:36,140 --> 00:19:37,493
Обещай мне.
91
00:19:38,460 --> 00:19:40,098
Я знаю.
92
00:19:40,980 --> 00:19:42,665
Я не буду.
93
00:19:42,700 --> 00:19:44,577
Я видел, что это с тобой сделало.
94
00:19:45,580 --> 00:19:47,457
Ты же меня любишь, правда?
95
00:19:50,860 --> 00:19:52,373
Да.

Скриншот c названием фильма

Скриншоты

[teatrix.ru].t5675.torrent 
Торрент: Зарегистрирован [ 2015-10-09 00:55 ] · 5C16F0C96F3D5729AF5A201B1C5A40F1DB6DBC06

Скачать .torrent

Скачать

14 KB

Статус: проверено
Скачан: 0 раз
Размер: 1.34 GB
terms.php



Быстрый ответ

Имя:

      
Для отправки сообщений необходимо включить JavaScript
Показать сообщения:    

Текущее время: 10-Дек 13:53

Часовой пояс: UTC + 3


Вы можете начинать темы
Вы можете отвечать на сообщения
Вы не можете редактировать свои сообщения
Вы не можете удалять свои сообщения
Вы не можете голосовать в опросах
Вы не можете прикреплять файлы к сообщениям
Вы можете скачивать файлы