Холодный рай / Холодные небеса / Cold Heaven (Николас Роуг / Nicolas Roeg) [1991, США, триллер, драма, мистика, HDTVRip] AVO (Володарский)


Статистика раздачи [Обновить пиров]
Размер:  1.46 GB   |    Зарегистрирован:  1 год 1 месяц   |    Скачан:  0 раз

Полного источника не было: Никогда

 
   
 
 
 

[Цитировать]

Холодный рай / Холодные небеса / Cold Heaven
Страна: США
Жанр: Триллер . мистика , драма
Год выпуска: 1991
Продолжительность: 1:38:10
Перевод: Авторский (одноголосый закадровый) Л. Володарский
Cубтитры: нет
Режиссер: Николас Роуг / Nicolas Roeg
В ролях: Тереза Расселл, Марк Хармон, Джеймс Руссо, Джули Кармен, Уилл Пэттон, Талия Шайр, Ричард Брэдфорд
Описание: По роману Брайана Мура. Супруги Дэвенпорт отдыхают в Мексике. Муж погибает в результате несчастного случая. Но его труп исчезает в день, когда назначено вскрытие. Оказывается, погибший оживает... Мрачная психодрама, густо замешанная на мистике. Мир потусторонний и мир земной соприкасаются, вызывая странные явления. Фильм полон намеков, символов, многозначительных совпадений. Хвала Создателю за то, что он иногда может исправлять последствия роковой случайности, если она затрагивает духовные основы того мира, который он создал
Доп. информация: Благодарность за видеоряд Ledy_X и edich2
Дорогу из своей личной коллекции предоставил alenavova
Сэмпл: https://www.sendspace.com/file/r6zqpk
Качество видео: HDTVRip
Формат видео: AVI
Видео: 720x400 (1.80:1), 25 fps, XviD build 50 ~1933 kbps avg, 0.27 bit/pixel
Аудио: AC3 , 48 kHz , 192.00 kbps avg , 2/0 (L,R) ch

MediaInfo

General
Complete name Холодный рай 1991.avi
Format : AVI
Format/Info : Audio Video Interleave
File size : 1.46 GiB
Duration : 1h 38mn
Overall bit rate : 2 135 Kbps
Movie name : Холодный рай
Director : Rip by Ledy_X
Writing application : VirtualDubMod 1.5.10.3 | www.virtualdub-fr.org || (build 2550/release)
Writing library : VirtualDub build 35491/release
Video
ID : 0
Format : MPEG-4 Visual
Format profile : Advanced Simple@L5
Format settings, BVOP : 1
Format settings, QPel : No
Format settings, GMC : No warppoints
Format settings, Matrix : Custom
Codec ID : DX50
Codec ID/Hint : DivX 5
Duration : 1h 38mn
Bit rate : 1 934 Kbps
Width : 720 pixels
Height : 400 pixels
Display aspect ratio : 16:9
Frame rate : 25.000 fps
Color space : YUV
Chroma subsampling : 4:2:0
Bit depth : 8 bits
Scan type : Progressive
Compression mode : Lossy
Bits/(Pixel*Frame) : 0.269
Stream size : 1.33 GiB (91%)
Writing library : XviD 1.2.1 (UTC 2008-12-04)
Audio
ID : 1
Format : AC-3
Format/Info : Audio Coding 3
Mode extension : CM (complete main)
Format settings, Endianness : Big
Codec ID : 2000
Duration : 1h 38mn
Bit rate mode : Constant
Bit rate : 192 Kbps
Channel(s) : 2 channels
Channel positions : Front: L R
Sampling rate : 48.0 KHz
Compression mode : Lossy
Stream size : 135 MiB (9%)
Alignment : Aligned on interleaves
Interleave, duration : 40 ms (1.00 video frame)
Interleave, preload duratio : 512 ms

Скриншоты

[teatrix.ru].t5677.torrent 
Торрент: Зарегистрирован [ 2015-10-09 00:55 ] · E76552C95D9958E738DAAB29AAEE225632AB7888

Скачать .torrent

Скачать

15 KB

Статус: проверено
Скачан: 0 раз
Размер: 1.46 GB
terms.php



Быстрый ответ

Имя:

      
Для отправки сообщений необходимо включить JavaScript
Показать сообщения:    

Текущее время: 08-Дек 14:56

Часовой пояс: UTC + 3


Вы можете начинать темы
Вы можете отвечать на сообщения
Вы не можете редактировать свои сообщения
Вы не можете удалять свои сообщения
Вы не можете голосовать в опросах
Вы не можете прикреплять файлы к сообщениям
Вы можете скачивать файлы