Мисс Кикки / Miss Kicki (Хакон Лью / Håkon Liu) [2009, Швеция, Тайвань, драма, DVDRip] VO (Кошкин)


Статистика раздачи [Обновить пиров]
Размер:  700 MB   |    Зарегистрирован:  1 год 1 месяц   |    Скачан:  0 раз

Полного источника не было: Никогда

 
   
 
 
 

[Цитировать]

Мисс Кикки / Miss Kicki- Страна: Швеция, Тайвань
Жанр: драма
Год выпуска: 2009
Продолжительность: 01:25:04-Перевод: Одноголосый закадровый Василий Кошкин
Cубтитры: нет-Режиссер: Хакон Лью / Håkon Liu
В ролях: Пернилла Аугуст, Людвиг Палмелл, Хуанг Хо, Эрик Цан, Бритта Андерссон-Описание: Виктор со своей матерью, Кикки, едут в Тайвань. Мальчик в тайне надеется, что он встретит отца, которого никогда не видел, но сердце его матери жаждет другого. Между ними появляется пропасть. Виктор знакомится с тайваньским парнем, Диди, и пропасть между ним и матерью становится еще больше.-Сэмпл-Качество видео: DVDRip
Формат видео: AVI
Видео: 608x336 (1.81:1), 23.976 fps, XviD build 62 ~1013 kbps avg, 0.21 bit/pixel
Аудио: 48 kHz, MPEG Layer 3, 2 ch, ~128.00 kbps avg

MediaInfo

General
Complete name : E:\Downloads\Miss.Kicki.2009.VO.avi
Format : AVI
Format/Info : Audio Video Interleave
File size : 700 MiB
Duration : 1h 25mn
Overall bit rate : 1 150 Kbps
Video
ID : 0
Format : MPEG-4 Visual
Format profile : Advanced Simple@L5
Format settings, BVOP : No
Format settings, QPel : No
Format settings, GMC : No warppoints
Format settings, Matrix : Default (H.263)
Codec ID : XVID
Codec ID/Hint : XviD
Duration : 1h 25mn
Bit rate : 1 013 Kbps
Width : 608 pixels
Height : 336 pixels
Display aspect ratio : 16:9
Frame rate : 23.976 fps
Color space : YUV
Chroma subsampling : 4:2:0
Bit depth : 8 bits
Scan type : Progressive
Compression mode : Lossy
Bits/(Pixel*Frame) : 0.207
Stream size : 616 MiB (88%)
Writing library : XviD 62
Audio
ID : 1
Format : MPEG Audio
Format version : Version 1
Format profile : Layer 3
Codec ID : 55
Codec ID/Hint : MP3
Duration : 1h 25mn
Bit rate mode : Constant
Bit rate : 128 Kbps
Channel(s) : 2 channels
Sampling rate : 48.0 KHz
Compression mode : Lossy
Stream size : 77.9 MiB (11%)
Alignment : Split accross interleaves
Interleave, duration : 42 ms (1.01 video frame)

Скриншот c названием фильма

Скриншоты

[teatrix.ru].t5678.torrent 
Торрент: Зарегистрирован [ 2015-10-09 00:55 ] · CEC5E75F27C593F5B541A97610425AF76EC65092

Скачать .torrent

Скачать

14 KB

Статус: проверено
Скачан: 0 раз
Размер: 700 MB
terms.php



Быстрый ответ

Имя:

      
Для отправки сообщений необходимо включить JavaScript
Показать сообщения:    

Текущее время: 06-Дек 15:15

Часовой пояс: UTC + 3


Вы можете начинать темы
Вы можете отвечать на сообщения
Вы не можете редактировать свои сообщения
Вы не можете удалять свои сообщения
Вы не можете голосовать в опросах
Вы не можете прикреплять файлы к сообщениям
Вы можете скачивать файлы