Плой / Уловка / Ploy (Пен-Ек Ратанаруанг / Pen-Ek Ratanaruang) [2007, Таиланд, драма, DVDRip-AVC] Sub Rus, Eng + Original


Статистика раздачи [Обновить пиров]
Размер:  1.45 GB   |    Зарегистрирован:  1 год 1 месяц   |    Скачан:  0 раз

Полного источника не было: Никогда

 
   
 
 
 

[Цитировать]

Плой / Уловка / Ploy
Страна: Таиланд
Жанр: драма
Год выпуска: 2007
Продолжительность: 01:41:38
Перевод: Субтитры (by RaggNaRock)
Cубтитры: русские, английские
Оригинальная аудиодорожка: тайская
Навигация по главам: есть
Режиссер: Пен-Ек Ратанаруанг / Pen-Ek Ratanaruang
В ролях: Ананда Эверингем, Лалита Панйопас, Порнтип Папанаи, Thaksakorn Pradapphongsa, Апиня Сакуляроенсак, Pornwut Sarasin
О фильме: Человеческие отношения - тонкая вещь. У каждой любви свой срок. Вит и его жена Дэнг возвращаются в Бангкок из Америки, где прожили семь лет. Супруги останавливаются в отеле в центре города. Вит спускается в бар, чтобы купить пачку сигарет и выпить чашку кофе. К нему подсаживается девушка и просит закурить. Так завязывается беседа и знакомство. Так начинается история о любви и ревности. Нередко супружеские пары оказываются перед выбором - расстаться навсегда или обнять друг друга и начать все сначала...
Доп. информация: http://www.imdb.com/title/tt0993778/
Сэмпл: http://sendfile.su/1145888
Качество видео: DVDRip-AVC
Формат видео: MKV
Видео: x264, 716x572@1018x572 (16:9), 25 fps, ~1595 kbps avg, 0.15 bit/pixel
Аудио: 48 kHz, AC3 Dolby Digital, 3/2 (L,C,R,l,r) + LFE ch, ~448.00 kbps avg

MediaInfo

Общее
Уникальный идентификатор : 176110488559646233229636224878761415207 (0x847DA576C90524CA81800F6D41EB1227)
Полное имя : H:\Фильмы\Плой\Ploj.2007.DVDRip-AVC.mkv
Формат : Matroska
Версия формата : Version 2
Размер файла : 1,45 Гбайт
Продолжительность : 1 ч. 41 м.
Общий поток : 2044 Кбит/сек
Название фильма : Ploy (Pen-Ek Ratanaruang, 2007) DVDRip-AVC
Дата кодирования : UTC 2015-08-10 15:05:08
Программа кодирования : mkvmerge v7.6.0 ('Garden of Dreams') 32bit built on Feb 11 2015 00:18:47
Библиотека кодирования : libebml v1.3.1 + libmatroska v1.4.2
Видео
Идентификатор : 1
Формат : AVC
Формат/Информация : Advanced Video Codec
Профиль формата : High@L4.1
Параметр CABAC формата : Да
Параметр ReFrames формата : 11 кадров
Идентификатор кодека : V_MPEG4/ISO/AVC
Продолжительность : 1 ч. 41 м.
Битрейт : 1595 Кбит/сек
Ширина : 716 пикселей
Высота : 572 пикселя
Соотношение сторон : 16:9
Режим частоты кадров : Постоянный
Частота кадров : 25,000 кадров/сек
Цветовое пространство : YUV
Субдискретизация насыщенности : 4:2:0
Битовая глубина : 8 бит
Тип развёртки : Прогрессивная
Бит/(Пиксели*Кадры) : 0.156
Размер потока : 1,10 Гбайт (76%)
Библиотека кодирования : x264 core 146 r2538 121396c
Настройки программы : cabac=1 / ref=11 / deblock=1:-1:-1 / analyse=0x3:0x133 / me=umh / subme=10 / psy=1 / psy_rd=1.00:0.10 / mixed_ref=1 / me_range=32 / chroma_me=1 / trellis=2 / 8x8dct=1 / cqm=0 / deadzone=21,11 / fast_pskip=0 / chroma_qp_offset=-3 / threads=6 / lookahead_threads=1 / sliced_threads=0 / nr=0 / decimate=0 / interlaced=0 / bluray_compat=0 / constrained_intra=0 / bframes=10 / b_pyramid=2 / b_adapt=2 / b_bias=0 / direct=3 / weightb=1 / open_gop=0 / weightp=2 / keyint=250 / keyint_min=25 / scenecut=40 / intra_refresh=0 / rc=2pass / mbtree=0 / bitrate=1595 / ratetol=1.0 / qcomp=0.60 / qpmin=10 / qpmax=51 / qpstep=4 / cplxblur=20.0 / qblur=0.5 / ip_ratio=1.30 / pb_ratio=1.20 / aq=2:0.80
Язык : English
Default : Да
Forced : Нет
Коэффициенты матрицы : BT.601
Аудио
Идентификатор : 2
Формат : AC-3
Формат/Информация : Audio Coding 3
Расширение режима : CM (complete main)
Параметр Endianness формата : Big
Идентификатор кодека : A_AC3
Продолжительность : 1 ч. 41 м.
Вид битрейта : Постоянный
Битрейт : 448 Кбит/сек
Каналы : 6 каналов
Расположение каналов : Front: L C R, Side: L R, LFE
Частота : 48,0 КГц
Битовая глубина : 16 бит
Метод сжатия : С потерями
Размер потока : 326 Мбайт (22%)
Заголовок : Original
Язык : Thai
Default : Да
Forced : Нет
Текст #1
Идентификатор : 3
Формат : UTF-8
Идентификатор кодека : S_TEXT/UTF8
Идентификатор кодека/Информация : UTF-8 Plain Text
Язык : English
Default : Нет
Forced : Нет
Текст #2
Идентификатор : 4
Формат : UTF-8
Идентификатор кодека : S_TEXT/UTF8
Идентификатор кодека/Информация : UTF-8 Plain Text
Заголовок : by RaggNaRock
Язык : Russian
Default : Да
Forced : Нет
Меню
00:00:00.000 : en:Chapter 1
00:14:22.040 : en:Chapter 2
00:25:24.800 : en:Chapter 3
00:47:23.840 : en:Chapter 4
01:02:03.960 : en:Chapter 5
01:14:46.920 : en:Chapter 6
01:23:54.720 : en:Chapter 7
01:33:43.680 : en:Chapter 8

x264

x264 [info]: frame I:703 Avg QP:15.09 size: 46073
x264 [info]: frame P:27012 Avg QP:17.11 size: 18077
x264 [info]: frame B:124725 Avg QP:18.67 size: 5568
x264 [info]: consecutive B-frames: 0.6% 0.5% 2.4% 8.1% 15.6% 51.4% 11.9% 5.4% 2.3% 1.3% 0.5%
x264 [info]: mb I I16..4: 9.2% 70.6% 20.2%
x264 [info]: mb P I16..4: 0.7% 5.4% 1.0% P16..4: 45.4% 26.6% 17.6% 0.4% 0.2% skip: 2.6%
x264 [info]: mb B I16..4: 0.0% 0.4% 0.1% B16..8: 37.6% 8.5% 2.1% direct: 7.7% skip:43.5% L0:41.2% L1:43.5% BI:15.3%
x264 [info]: 8x8 transform intra:75.4% inter:47.9%
x264 [info]: direct mvs spatial:99.5% temporal:0.5%
x264 [info]: coded y,uvDC,uvAC intra: 90.3% 64.1% 34.4% inter: 23.1% 10.7% 2.8%
x264 [info]: i16 v,h,dc,p: 33% 9% 12% 45%
x264 [info]: i8 v,h,dc,ddl,ddr,vr,hd,vl,hu: 17% 6% 7% 9% 13% 15% 10% 13% 10%
x264 [info]: i4 v,h,dc,ddl,ddr,vr,hd,vl,hu: 21% 5% 4% 10% 13% 16% 10% 13% 9%
x264 [info]: i8c dc,h,v,p: 30% 27% 27% 15%
x264 [info]: Weighted P-Frames: Y:7.5% UV:2.4%
x264 [info]: ref P L0: 38.6% 9.5% 16.7% 8.7% 6.8% 5.6% 4.9% 3.0% 2.5% 2.0% 1.5% 0.1% 0.0%
x264 [info]: ref B L0: 74.4% 13.2% 4.6% 2.4% 1.7% 1.4% 1.1% 0.6% 0.4% 0.2%
x264 [info]: ref B L1: 94.3% 5.7%
[teatrix.ru].t5680.torrent 
Торрент: Зарегистрирован [ 2015-10-09 00:55 ] · C7A3464C7DC1A938BF2CC86DA75F2E297BF19EF5

Скачать .torrent

Скачать

15 KB

Статус: проверено
Скачан: 0 раз
Размер: 1.45 GB
terms.php



Быстрый ответ

Имя:

      
Для отправки сообщений необходимо включить JavaScript
Показать сообщения:    

Текущее время: 04-Дек 13:17

Часовой пояс: UTC + 3


Вы можете начинать темы
Вы можете отвечать на сообщения
Вы не можете редактировать свои сообщения
Вы не можете удалять свои сообщения
Вы не можете голосовать в опросах
Вы не можете прикреплять файлы к сообщениям
Вы можете скачивать файлы