Логово белого червя / The Lair of the White Worm (Кен Рассел / Ken Russell) [1988, Ужасы, Великобритания, WEB-DLRip] AVO (Петр Карцев)


Статистика раздачи [Обновить пиров]
Размер:  1.4 GB   |    Зарегистрирован:  1 год 1 месяц   |    Скачан:  0 раз

Полного источника не было: Никогда

 
   
 
 
 

[Цитировать]

Логово белого червя / The Lair of the White Worm
Страна: Ужасы
Жанр: Великобритания
Год выпуска: 1988
Продолжительность: 01:33:15
Перевод: Авторский (одноголосый закадровый) Петр Карцев
Cубтитры: нет
Режиссер: Кен Рассел / Ken Russell
В ролях: Аманда Донохью, Хью Грант, Кэтрин Оксенберг, Питер Капальди, Сэмми Дэвис, Стрэтфорд Джонс, Пол Брук, Имоджен Клер, Крис Питт, Джина МакКи
Описание: Аннотация от alenavova
Весьма нестрашный и несерьезный фильм ужасов весьма ироничного режиссера Кена Расселла. Археолог ведет раскопки там, где некогда обитало легендарное чудовище - огромный Белый Червь, убитый по преданию предком нынешнего владельца соседнего замка. Два молодых человека (лорд и археолог) неравнодушны к двум прелестным сестрам, которых выбрала в жертву ожившему чудовищу высокородная жрица, чье хобби - кусать случайных путников внезапно вырастающими из прелестного ротика змеиными клыками. Благородные молодые люди спасают невинных девушек от жертвоприношения. Злые силы побеждены... Так ли это?
Доп. информация: Дорожка с П. Карцевым синхронизирована и наложена ale_x2008 при помощи Adobe Audition, Sony Vegas и VirtualDubMod.
За оцифрованную с VHS СТЕРЕО дорожку благодарим - Fikaloid

Сэмпл: https://yadi.sk/i/HnnpPruBiRSsK
Качество видео: WEB-DLRip
Формат видео: AVI
Видео: XviD build 50, 720x400 (1.80:1), 24.00 fps, 1940 kbps avg, 0.28 bit/pixel
Аудио: AC3 Dolby Digital, 48000 Hz, 2/0 (L,R) ch (stereo), 192.00 kbps avg

MediaInfo

Логово белого червя - The Lair of the White Worm (by ale_x2008).avi
Format : AVI
Format/Info : Audio Video Interleave
File size : 1.40 GiB
Duration : 1h 33mn
Overall bit rate : 2 142 Kbps
Movie name : Логово белого червя - The Lair of the White Worm (by ale_x2008)
Director : by ale_x2008
Writing application : VirtualDubMod 1.5.10.3 (build 2550/release)
Copyright : Edich2
Comment :
Video
ID : 0
Format : MPEG-4 Visual
Format profile : Advanced Simple@L5
Format settings, BVOP : 1
Format settings, QPel : No
Format settings, GMC : No warppoints
Format settings, Matrix : Default (MPEG)
Codec ID : XVID
Codec ID/Hint : XviD
Duration : 1h 33mn
Bit rate : 1 941 Kbps
Width : 720 pixels
Height : 400 pixels
Display aspect ratio : 16:9
Frame rate : 24.000 fps
Color space : YUV
Chroma subsampling : 4:2:0
Bit depth : 8 bits
Scan type : Progressive
Compression mode : Lossy
Bits/(Pixel*Frame) : 0.281
Stream size : 1.26 GiB (91%)
Writing library : XviD 1.2.1 (UTC 2008-12-04)
Audio
ID : 1
Format : AC-3
Format/Info : Audio Coding 3
Mode extension : CM (complete main)
Format settings, Endianness : Big
Codec ID : 2000
Duration : 1h 33mn
Bit rate mode : Constant
Bit rate : 192 Kbps
Channel(s) : 2 channels
Channel positions : Front: L R
Sampling rate : 48.0 KHz
Bit depth : 16 bits
Compression mode : Lossy
Stream size : 128 MiB (9%)
Alignment : Split accross interleaves
Interleave, duration : 42 ms (1.00 video frame)
Interleave, preload duration : 500 ms

Скриншоты


[teatrix.ru].t5681.torrent 
Торрент: Зарегистрирован [ 2015-10-09 00:55 ] · 72C934A5A24128FB5DFB5BBA42C85447A804D7AC

Скачать .torrent

Скачать

15 KB

Статус: проверено
Скачан: 0 раз
Размер: 1.4 GB
terms.php



Быстрый ответ

Имя:

      
Для отправки сообщений необходимо включить JavaScript
Показать сообщения:    

Текущее время: 03-Дек 22:47

Часовой пояс: UTC + 3


Вы можете начинать темы
Вы можете отвечать на сообщения
Вы не можете редактировать свои сообщения
Вы не можете удалять свои сообщения
Вы не можете голосовать в опросах
Вы не можете прикреплять файлы к сообщениям
Вы можете скачивать файлы