Королева Марго / La reine Margot / Queen Margot (Патрис Шеро / Patrice Chereau (Chereau)) [1994, Франция, Италия, Германия, DVDRip] [Full Version / Полная Версия] 3x MVO (Тивионика, DVDXpert, Скит) + AVO (Юрий Сербин) + Sub Rus + Original Fre


Статистика раздачи [Обновить пиров]
Размер:  3.37 GB   |    Зарегистрирован:  1 год 2 месяца   |    Скачан:  0 раз

Полного источника не было: Никогда

 
   
 
 
 

[Цитировать]

Королева Марго / La reine Margot / Queen Margot

Full Version / Полная Версия
Страна: Франция, Италия, Германия
Жанр: драма, мелодрама, биография, история
Год выпуска: 1994
Продолжительность: 02:43:34
Перевод 1: Профессиональный (многоголосый закадровый) - "Тивионика"
Перевод 2: Авторский (одноголосый закадровый) - Юрий Сербин
Перевод 3: Профессиональный (многоголосый закадровый) - "DVDXpert"
Перевод 4: Профессиональный (многоголосый закадровый) - "Скит"
Cубтитры: русские
Оригинальная аудиодорожка: французский
Режиссер: Патрис Шеро / Patrice Chéreau (Chereau)
В ролях: Изабель Аджани, Даниель Отой, Жан-Юг Англад, Венсан Перес, Вирна Лизи, Доминик Блан, Паскаль Греггори, Клаудио Амендола, Мигель Бозе, Азия Ардженто ...
Описание: Август 1572 года. Францию раздирает религиозная война. Чтобы восстановить мир в стране, прекрасная и гордая принцесса Марго, сестра католического короля Карла IX, должна выйти замуж за протестанта Генриха Наваррского. А после свадьбы произошла кровавая резня Варфоломеевской ночи, организованная жестокой и коварной Екатериной Медичи.
Погибли тысячи протестантов, а один из них, тяжело раненный дворянин по имени Ла Моль, в отчаянной попытке спасти свою жизнь постучался в дверь Марго.
Доп. информация: Рип сделан из этого DVD9. (Который на постере)-- --La Reine Margot (1994)_DVDRip_[Full Version]_Sample_.avi-
-

Награды


-
-rulle1 писал(а):68488015Здесь раздается самая полная версия данного фильма продолжительностью 164 минуты.
Исходник от R2 (Capelight Pictures (AL!VE), Германия) предоставлен vadim-bv.
На оригинальном диске – французская оригинальная дорожка и немецкий дубляж, а также немецкие субтитры.
Добавлены профессиональные (многоголосые, закадровые) переводы от Скит, Тивионики, DVDXpert и авторский (одноголосый, закадровый) перевод Юрия Сербина. Также добавлены русские субтитры. В целях соблюдения максимально возможного размера DVD удален немецкий дубляж.
Все расширенные места переведены. Расширенные места в многоголосках озвучены теми же актерами, которые доозвучивали New Director's Cut (новую режиссерскую версию).
Данную сборку осуществил Нордер.
Спасибо всем, без чьего участия эта раздача не состоялась бы.
Наиблее известны 4 версии "Королевы Марго" на цифровых носителях:
2) режиссерская версия, вышла на DVD во Франции в 2004 г. при участии Патриса Шеро, 154 мин.: http://teatrix.ru/viewtopic.php?t=7306
3) новая режиссерская версия (New Director's Cut), вышла на BD в Германии в 2014 г., 158 мин. (отличается от старой режиссерской версии не только fps): http://teatrix.ru/viewtopic.php?t=6847
4) полная версия, вышла на DVD в Германии в 2007 и 2014 г., 164 мин., раздается здесь - http://teatrix.ru/viewtopic.php?t=7089

Доп. информация

Перевод Юрия Сербина выполнен спонсорами ресурса e180: Hattori Hanzo, Некрасов, denis_mgn_1987, Nadoelo, zeleniy, motel, Foots, Партизан, muha, Kastro, luka69, chontvari, Ken, Drodder, uchitel538, minnesotawild, Roman Lee, Vladimir, Эдуард, jorn2, kondratzx, dsk71, GKillah, carnivale, Tio. Всем спасибо!

-
-

Детально об исходнике

http://www.ofdb.de/view.php?page=fassung&fid=1606&vid=391111

-
-

Сравнение Long Version(Full Version) с Director's Cut

http://www.movie-censorship.com/report.php?ID=875009

-
-Качество видео: DVDRip
Формат видео: AVI
Видео: 688x384 (1.79:1), 25 fps, XviD build 50 ~1978 kbps avg, 0.30 bit/pixel
Аудио 1: 48 kHz, AC3 Dolby Digital, 2/0 (L,R) ch, ~192 kbps, Русский - MVO "Тивионика"
Аудио 2: 48 kHz, AC3 Dolby Digital, 2/0 (L,R) ch, ~192 kbps, Русский - AVO Юрий Сербин
Аудио 3: 48 kHz, AC3 Dolby Digital, 2/0 (L,R) ch, ~192 kbps, французский
Аудио 4: 48 kHz, AC3 Dolby Digital, 2/0 (L,R) ch, ~192 kbps, Русский - MVO "DVDXpert" -- [Отдельно]
Аудио 5: 48 kHz, AC3 Dolby Digital, 2/0 (L,R) ch, ~192 kbps, Русский - MVO "Скит" -- [Отдельно]
Формат субтитров: softsub (SRT)

AviInfo

File: La Reine Margot (1994)_DVDRip_[Full Version]_.avi
Title: La Reine Margot (1994)_[Full Version]_
Copyleft: Ripped_by_rjhlb777
Genre: Biography, Drama, History
Category: Movie
Comment: MVO ("Тивионика") + AVO (Юрий Сербин) + Original Fre
FileSize: 2997.28 Mb ( 3 142 879 232 bytes )
Play length: 02:43:34.719 (245368 frames)
Subtitles: RUS_ (SubRip format)
Video: 688x384 (1.79:1), 25 fps, XviD build 50 ~1978 kbps avg, 0.30 bit/pixel
Audio #1: 48 kHz, AC3 Dolby Digital, 2/0 (L,R) ch, ~192 kbps
Audio #2: 48 kHz, AC3 Dolby Digital, 2/0 (L,R) ch, ~192 kbps
Audio #3: 48 kHz, AC3 Dolby Digital, 2/0 (L,R) ch, ~192 kbps

MediaInfo

General
Complete name : C:\Temp\_RELEASES_\La Reine Margot (1994)_DVDRip_[Full Version]_\La Reine Margot (1994)_DVDRip_[Full Version]_.avi
Format : AVI
Format/Info : Audio Video Interleave
Format profile : OpenDML
File size : 2.93 GiB
Duration : 2h 43mn
Overall bit rate : 2 562 Kbps
Movie name : La Reine Margot (1994)_[Full Version]_
Genre : Biography, Drama, History
Writing application : VirtualDubMod 1.5.10.3 | www.virtualdub-fr.org || (build 2550/release)
Original source form/Name : Movie
Copyright : Ripped_by_rjhlb777
Comment : MVO ("Тивионика") + AVO (Юрий Сербин) + Original Fre
Video
ID : 0
Format : MPEG-4 Visual
Format profile : Advanced Simple@L5
Format settings, BVOP : 1
Format settings, QPel : No
Format settings, GMC : No warppoints
Format settings, Matrix : Default (MPEG)
Codec ID : XVID
Codec ID/Hint : XviD
Duration : 2h 43mn
Bit rate : 1 965 Kbps
Width : 688 pixels
Height : 384 pixels
Display aspect ratio : 16:9
Frame rate : 25.000 fps
Color space : YUV
Chroma subsampling : 4:2:0
Bit depth : 8 bits
Scan type : Progressive
Compression mode : Lossy
Bits/(Pixel*Frame) : 0.297
Stream size : 2.24 GiB (77%)
Writing library : XviD 1.2.1 (UTC 2008-12-04)
Audio #1
ID : 1
Format : AC-3
Format/Info : Audio Coding 3
Mode extension : CM (complete main)
Format settings, Endianness : Big
Codec ID : 2000
Duration : 2h 43mn
Bit rate mode : Constant
Bit rate : 192 Kbps
Channel(s) : 2 channels
Channel positions : Front: L R
Sampling rate : 48.0 KHz
Compression mode : Lossy
Stream size : 225 MiB (7%)
Alignment : Split accross interleaves
Interleave, duration : 40 ms (1.00 video frame)
Interleave, preload duratio : 500 ms
Audio #2
ID : 2
Format : AC-3
Format/Info : Audio Coding 3
Mode extension : CM (complete main)
Format settings, Endianness : Big
Codec ID : 2000
Duration : 2h 43mn
Bit rate mode : Constant
Bit rate : 192 Kbps
Channel(s) : 2 channels
Channel positions : Front: L R
Sampling rate : 48.0 KHz
Compression mode : Lossy
Stream size : 225 MiB (7%)
Alignment : Split accross interleaves
Interleave, duration : 40 ms (1.00 video frame)
Interleave, preload duratio : 500 ms
Audio #3
ID : 3
Format : AC-3
Format/Info : Audio Coding 3
Mode extension : CM (complete main)
Format settings, Endianness : Big
Codec ID : 2000
Duration : 2h 43mn
Bit rate mode : Constant
Bit rate : 192 Kbps
Channel(s) : 2 channels
Channel positions : Front: L R
Sampling rate : 48.0 KHz
Compression mode : Lossy
Stream size : 225 MiB (7%)
Alignment : Split accross interleaves
Interleave, duration : 40 ms (1.00 video frame)
Interleave, preload duratio : 500 ms
[teatrix.ru].t5684.torrent 
Торрент: Зарегистрирован [ 2015-10-09 00:55 ] · 28937B02D51AFED7C9238E0BB8F1E9BC47F3CC1C

Скачать .torrent

Скачать

18 KB

Статус: проверено
Скачан: 0 раз
Размер: 3.37 GB
terms.php



Быстрый ответ

Имя:

      
Для отправки сообщений необходимо включить JavaScript
Показать сообщения:    

Текущее время: 09-Дек 06:51

Часовой пояс: UTC + 3


Вы можете начинать темы
Вы можете отвечать на сообщения
Вы не можете редактировать свои сообщения
Вы не можете удалять свои сообщения
Вы не можете голосовать в опросах
Вы не можете прикреплять файлы к сообщениям
Вы можете скачивать файлы