Где-то, где никогда не бывал / Somewhere I Have Never Travelled (Фу Тянь-Юй / Fu Tien-Yu) [2009, Тайвань, драма, DVDRip] VO (Кошкин)


Статистика раздачи [Обновить пиров]
Размер:  700 MB   |    Зарегистрирован:  1 год 2 месяца   |    Скачан:  0 раз

Полного источника не было: Никогда

 
   
 
 
 

[Цитировать]

Где-то, где никогда не бывал / Somewhere I Have Never Travelled- Страна: Тайвань
Жанр: драма
Год выпуска: 2009
Продолжительность: 01:34:11-Перевод: Одноголосый закадровый Василий Кошкин
Cубтитры: нет-Режиссер: Фу Тянь-Юй / Fu Tien-Yu
В ролях: Лин По-Хун, Ли Юнь-Юнь, Юй Хсинь, Ли Юн-Фэн, Фэнг Мей-Описание: В маленьком тайваньском городке у моря живут двоюродные брат и сестра.
Мир 15-летней А-Гуэй отличается от других — он бесцветен. Она неуклюжая, странноватая, и единственный человек, к которому она очень привязана и кто ее понимает, — ее 20-летний брат А-Сянь. Вместе они мечтают, что однажды улетят туда, где не будет места грусти и одиночеству. А-Сянь хочет отправиться в Нью-Йорк со своим любимым, а А-Гуэй — на маленький остров в Тихом океане, где она не будет чувствовать себя чужой, потому что там живут такие же как она — те, кто не различает цветов. Но суждено ли сбыться их мечтам?-Сэмпл-Качество видео: DVDRip
Формат видео: AVI
Видео: 576x320 (1.80:1), 23.976 fps, XviD MPEG-4 ~837 kbps avg, 0.19 bit/pixel
Аудио: 48 kHz, AC3 Dolby Digital, 2/0 (L,R) ch, ~192 kbps

MediaInfo

General
Complete name : E:\Downloads\Somewhere.I.Have.Never.Travelled.2009.VO.avi
Format : AVI
Format/Info : Audio Video Interleave
File size : 700 MiB
Duration : 1h 34mn
Overall bit rate : 1 039 Kbps
Writing application : VirtualDubMod 1.5.10.2 (build 2540/release)
Writing library : VirtualDubMod build 2540/release
Video
ID : 0
Format : MPEG-4 Visual
Format profile : Advanced Simple@L5
Format settings, BVOP : 3
Format settings, QPel : No
Format settings, GMC : No warppoints
Format settings, Matrix : Default (H.263)
Muxing mode : Packed bitstream
Codec ID : XVID
Codec ID/Hint : XviD
Duration : 1h 34mn
Bit rate : 838 Kbps
Width : 576 pixels
Height : 320 pixels
Display aspect ratio : 16:9
Frame rate : 23.976 fps
Color space : YUV
Chroma subsampling : 4:2:0
Bit depth : 8 bits
Scan type : Progressive
Compression mode : Lossy
Bits/(Pixel*Frame) : 0.190
Stream size : 564 MiB (81%)
Writing library : XviD 1.2.1 (UTC 2008-12-04)
Audio
ID : 1
Format : AC-3
Format/Info : Audio Coding 3
Mode extension : CM (complete main)
Format settings, Endianness : Big
Codec ID : 2000
Duration : 1h 34mn
Bit rate mode : Constant
Bit rate : 192 Kbps
Channel(s) : 2 channels
Channel positions : Front: L R
Sampling rate : 48.0 KHz
Bit depth : 16 bits
Compression mode : Lossy
Stream size : 129 MiB (18%)
Alignment : Split accross interleaves
Interleave, duration : 42 ms (1.00 video frame)
Interleave, preload duration : 500 ms

Скриншот c названием фильма

Скриншоты

[teatrix.ru].t5685.torrent 
Торрент: Зарегистрирован [ 2015-10-09 00:55 ] · 013C38CC2AA9B63F37A66C53A2D5417CCEED083B

Скачать .torrent

Скачать

14 KB

Статус: проверено
Скачан: 0 раз
Размер: 700 MB
terms.php



Быстрый ответ

Имя:

      
Для отправки сообщений необходимо включить JavaScript
Показать сообщения:    

Текущее время: 11-Дек 14:53

Часовой пояс: UTC + 3


Вы можете начинать темы
Вы можете отвечать на сообщения
Вы не можете редактировать свои сообщения
Вы не можете удалять свои сообщения
Вы не можете голосовать в опросах
Вы не можете прикреплять файлы к сообщениям
Вы можете скачивать файлы