Внутренняя империя / Inland Empire (Дэвид Линч / David Lynch) [2006, Франция, Польша, США, фэнтези, триллер, драма, детектив, BDRip-AVC] 2x MVO (CP Digital, Киномания) + AVO (Сербин) + Original (Eng) + Sub (Rus, Eng)


 

[Цитировать]

Внутренняя империя / Inland Empire
«A Woman In Trouble»
- Страна: Франция, Польша, США
Жанр: фэнтези, триллер, драма, детектив
Год выпуска: 2006
Продолжительность: 02:59:23-Перевод №1: Профессиональный (многоголосый, закадровый) - CP Digital
Перевод №2: Профессиональный (многоголосый, закадровый) - Киномания
Перевод №3: Авторский (одноголосый, закадровый) - Сербин - отдельно в раздаче
Оригинальная аудиодорожка: English
Cубтитры: Русские (полные), English (full)
Навигация по главам: отсутствует-Режиссер: Дэвид Линч / David Lynch
В ролях: Лора Дерн, Джереми Айронс, Джастин Теру, Каролина Грушка, Jan Hencz, Кшиштоф Майхжак, Грейс Забриски-Описание: Актеры Никки Грейс и Девон Берк приступают к съемкам нового фильма «On High in Blue Tomorrows». По мере погружения в роль, жизнь Никки резко меняется: она перестает понимать, где кончается реальность и начинается кино. Неожиданно Никки узнает, что она не первая исполнительница роли. Несколько лет назад съемки прервались, после того как главных актеров нашли убитыми. Но еще больше Никки беспокоит то, что ее героиня становится более реальной, чем она сама…-
Download sample-Качество видео: BDRip-AVC | исх. BDRemux 1080p - thx: shtift
Формат: MKV-Видео: 1 132x612 (1.85:1), 23.976 fps, H.264 ~3 000 kbps avg, 0.173 bit/pixel
Аудио №1: 48.0 kHz, AC3 Dolby Digital, 3/2 (L,C,R,l,r) + LFE ch, ~448 kbps | Профессиональный (многоголосый, закадровый) - CP Digital
Аудио №2: 48.0 kHz, AC3 Dolby Digital, 3/2 (L,C,R,l,r) + LFE ch, ~448 kbps | Профессиональный (многоголосый, закадровый) - Киномания
Аудио №3: 48.0 kHz, AC3 Dolby Digital, 3/2 (L,C,R,l,r) + LFE ch, ~448 kbps | Авторский (одноголосый, закадровый) - Сербин - отдельно в раздаче
Аудио №4: 48.0 kHz, AC3 Dolby Digital, 3/2 (L,C,R,l,r) + LFE ch, ~448 kbps | English
Субтитры №1: Русские (полные) | *.srt
Субтитры №2: English (full) | *.srt-

MediaInfo

General
Unique ID : 224080218665071020128194623115296842202 (0xA89447C23645D4EE9FF28CB319D921DA)
Complete name : D:\Фильмы\Рипы\Inland Empire.2006.BDRip-AVC.eFK tRuAVC.mkv
Format : Matroska
Format version : Version 4 / Version 2
File size : 5.41 GiB
Duration : 2h 59mn
Overall bit rate : 4 306 Kbps
Movie name : Внутренняя империя / Inland Empire (2006) -
Encoded date : UTC 2015-08-08 21:06:01
Writing application : mkvmerge v7.6.0 ('Garden of Dreams') 64bit built on Feb 8 2015 13:04:34
Writing library : libebml v1.3.1 + libmatroska v1.4.2
Attachements : cover.png
DURATION : 02:58:15.120000000
NUMBER_OF_FRAMES : 1336
NUMBER_OF_BYTES : 36401
_STATISTICS_WRITING_APP : mkvmerge v7.6.0 ('Garden of Dreams') 64bit built on Feb 8 2015 13:04:34
_STATISTICS_WRITING_DATE_UT : 2015-08-08 21:06:01
_STATISTICS_TAGS : BPS DURATION NUMBER_OF_FRAMES NUMBER_OF_BYTES
Video
ID : 1
Format : AVC
Format/Info : Advanced Video Codec
Format profile : High@L4.1
Format settings, CABAC : Yes
Format settings, ReFrames : 10 frames
Codec ID : V_MPEG4/ISO/AVC
Duration : 2h 59mn
Bit rate : 2 876 Kbps
Width : 1 132 pixels
Height : 612 pixels
Display aspect ratio : 1.85:1
Frame rate mode : Constant
Frame rate : 23.976 fps
Color space : YUV
Chroma subsampling : 4:2:0
Bit depth : 8 bits
Scan type : Progressive
Bits/(Pixel*Frame) : 0.173
Stream size : 3.61 GiB (67%)
Title : eFK tRuAVC
Writing library : x264 core 146 r2538kMod 121396c
Encoding settings : cabac=1 / ref=10 / deblock=1:-3:-2 / analyse=0x3:0x133 / me=umh / subme=11 / psy=1 / fade_compensate=0.00 / psy_rd=1.00:0.00 / mixed_ref=1 / me_range=48 / chroma_me=1 / trellis=2 / 8x8dct=1 / cqm=0 / deadzone=21,11 / fast_pskip=0 / chroma_qp_offset=-2 / threads=12 / lookahead_threads=3 / sliced_threads=0 / nr=0 / decimate=1 / interlaced=0 / bluray_compat=0 / constrained_intra=0 / fgo=0 / bframes=16 / b_pyramid=2 / b_adapt=2 / b_bias=0 / direct=3 / weightb=1 / open_gop=0 / weightp=2 / keyint=250 / keyint_min=23 / scenecut=40 / intra_refresh=0 / rc_lookahead=60 / rc=crf / mbtree=1 / crf=18.3000 / qcomp=0.70 / qpmin=0 / qpmax=69 / qpstep=4 / vbv_maxrate=50000 / vbv_bufsize=62500 / crf_max=0.0 / nal_hrd=none / filler=0 / ip_ratio=1.40 / aq=3:0.95
Language : English
Default : Yes
Forced : No
Color primaries : BT.709
Transfer characteristics : BT.709
Matrix coefficients : BT.709
Color range : Limited
DURATION : 02:59:43.815000000
NUMBER_OF_FRAMES : 258553
NUMBER_OF_BYTES : 3989444282
_STATISTICS_WRITING_APP : mkvmerge v7.6.0 ('Garden of Dreams') 64bit built on Feb 8 2015 13:04:34
_STATISTICS_WRITING_DATE_UT : 2015-08-08 21:06:01
_STATISTICS_TAGS : BPS DURATION NUMBER_OF_FRAMES NUMBER_OF_BYTES
Audio #1
ID : 2
Format : AC-3
Format/Info : Audio Coding 3
Mode extension : CM (complete main)
Format settings, Endianness : Big
Codec ID : A_AC3
Duration : 2h 59mn
Bit rate mode : Constant
Bit rate : 448 Kbps
Channel(s) : 6 channels
Channel positions : Front: L C R, Side: L R, LFE
Sampling rate : 48.0 KHz
Bit depth : 16 bits
Compression mode : Lossy
Stream size : 576 MiB (10%)
Title : MVO - CP Digital
Language : Russian
Default : Yes
Forced : No
Audio #2
ID : 3
Format : AC-3
Format/Info : Audio Coding 3
Mode extension : CM (complete main)
Format settings, Endianness : Big
Codec ID : A_AC3
Duration : 2h 59mn
Bit rate mode : Constant
Bit rate : 448 Kbps
Channel(s) : 6 channels
Channel positions : Front: L C R, Side: L R, LFE
Sampling rate : 48.0 KHz
Bit depth : 16 bits
Compression mode : Lossy
Stream size : 576 MiB (10%)
Title : MVO - Киномания
Language : Russian
Default : No
Forced : No
Audio #3
ID : 4
Format : AC-3
Format/Info : Audio Coding 3
Mode extension : CM (complete main)
Format settings, Endianness : Big
Codec ID : A_AC3
Duration : 2h 59mn
Bit rate mode : Constant
Bit rate : 448 Kbps
Channel(s) : 6 channels
Channel positions : Front: L C R, Side: L R, LFE
Sampling rate : 48.0 KHz
Bit depth : 16 bits
Compression mode : Lossy
Stream size : 576 MiB (10%)
Language : English
Default : No
Forced : No
Text #1
ID : 5
Format : UTF-8
Codec ID : S_TEXT/UTF8
Codec ID/Info : UTF-8 Plain Text
Title : полные
Language : Russian
Default : No
Forced : No
Text #2
ID : 6
Format : UTF-8
Codec ID : S_TEXT/UTF8
Codec ID/Info : UTF-8 Plain Text
Title : full
Language : English
Default : No
Forced : No

x264 log

x264 [info]: frame I:1396 Avg QP:13.56 size: 77830
x264 [info]: frame P:55701 Avg QP:16.39 size: 27536
x264 [info]: frame B:201456 Avg QP:18.15 size: 11650
x264 [info]: consecutive B-frames: 1.5% 1.8% 6.2% 24.3% 30.2% 23.7% 5.5% 4.1% 1.3% 0.3% 0.1% 0.1% 0.1% 0.0% 0.1% 0.1% 0.4%
x264 [info]: mb I I16..4: 3.3% 87.6% 9.1%
x264 [info]: mb P I16..4: 0.7% 11.6% 0.9% P16..4: 33.8% 37.9% 10.6% 0.7% 0.0% skip: 3.7%
x264 [info]: mb B I16..4: 0.1% 1.8% 0.1% B16..8: 32.6% 18.8% 2.8% direct: 9.2% skip:34.5% L0:42.7% L1:46.7% BI:10.6%
x264 [info]: 8x8 transform intra:88.5% inter:63.5%
x264 [info]: direct mvs spatial:99.9% temporal:0.1%
x264 [info]: coded y,uvDC,uvAC intra: 87.7% 79.2% 49.9% inter: 29.3% 26.2% 2.6%
x264 [info]: i16 v,h,dc,p: 34% 10% 6% 50%
x264 [info]: i8 v,h,dc,ddl,ddr,vr,hd,vl,hu: 12% 6% 7% 10% 13% 15% 11% 14% 13%
x264 [info]: i4 v,h,dc,ddl,ddr,vr,hd,vl,hu: 33% 6% 7% 7% 10% 11% 8% 9% 9%
x264 [info]: i8c dc,h,v,p: 33% 31% 18% 18%
x264 [info]: Weighted P-Frames: Y:8.3% UV:5.4%
x264 [info]: ref P L0: 39.8% 5.2% 19.7% 8.2% 7.1% 5.5% 5.1% 3.1% 3.0% 2.9% 0.5% 0.0%
x264 [info]: ref B L0: 74.4% 11.8% 4.9% 2.6% 2.0% 1.7% 1.4% 0.7% 0.4%
x264 [info]: ref B L1: 94.3% 5.7%
x264 [info]: kb/s:2959.58
x264 [total]: encoded 258553 frames, 7.23 fps, 2959.58 kb/s, duration 9:56:14.58

Comparison

Source

Encode



Показать сообщения:    

Текущее время: 04-Дек 00:44

Часовой пояс: UTC + 3


Вы не можете начинать темы
Вы не можете отвечать на сообщения
Вы не можете редактировать свои сообщения
Вы не можете удалять свои сообщения
Вы не можете голосовать в опросах
Вы не можете прикреплять файлы к сообщениям
Вы не можете скачивать файлы