Сербис / Serbis (Брийанте Мендоса / Brillante Mendoza) [2008, Филиппины, Франция, Южная Корея, Гонконг, драма, DVDRip] VO (Кошкин)


Статистика раздачи [Обновить пиров]
Размер:  749 MB   |    Зарегистрирован:  1 год 1 месяц   |    Скачан:  0 раз

Полного источника не было: Никогда

 
   
 
 
 

[Цитировать]

Сербис / Serbis- Страна: Филиппины, Франция, Южная Корея, Гонконг
Жанр: драма
Год выпуска: 2008
Продолжительность: 01:27:23-Перевод: Одноголосый закадровый Василий Кошкин
Cубтитры: нет-Режиссер: Брийанте Мендоса / Brillante Mendoza
В ролях: Джина Пареньо, Жаклин Хосе, Хулио Диас, Кристоффер Кинг, Дэн Альваро, Коко Мартин, Мерседес Кабраль-Описание: Драма, которая демонстрирует тяжелую жизнь семьи Пинеда из филиппинского города Анхелес. Двоеженство, нежелательная беременность, возможный инцест и раздражения кожи — все эти вызовы жизнь ежедневно бросает героям фильма, но настоящей «звездой» фильма является огромный, полуразрушенный кинотеатр, который одновременно является домом и местом работы семьи. Когда-то престижный центр развлечений, этот кинотеатр теперь показывает фильмы для взрослых и является притоном всевозможных жуликов, проституток и извращенцев.-Сэмпл-Качество видео: DVDRip
Формат видео: AVI
Видео: 672x368 (1.83:1), 25 fps, XviD build 50 ~997 kbps avg, 0.16 bit/pixel
Аудио: 48 kHz, AC3 Dolby Digital, 2/0 (L,R) ch, ~192 kbps

MediaInfo

General
Complete name : E:\Downloads\Serbis.2008.VO.avi
Format : AVI
Format/Info : Audio Video Interleave
File size : 749 MiB
Duration : 1h 27mn
Overall bit rate : 1 199 Kbps
Writing application : VirtualDubMod 1.5.10.2 (build 2540/release)
Writing library : VirtualDubMod build 2540/release
Video
ID : 0
Format : MPEG-4 Visual
Format profile : Advanced Simple@L5
Format settings, BVOP : 1
Format settings, QPel : No
Format settings, GMC : No warppoints
Format settings, Matrix : Custom
Codec ID : XVID
Codec ID/Hint : XviD
Duration : 1h 27mn
Bit rate : 997 Kbps
Width : 672 pixels
Height : 368 pixels
Display aspect ratio : 1.85:1
Frame rate : 25.000 fps
Color space : YUV
Chroma subsampling : 4:2:0
Bit depth : 8 bits
Scan type : Progressive
Compression mode : Lossy
Bits/(Pixel*Frame) : 0.161
Stream size : 623 MiB (83%)
Writing library : XviD 1.2.1 (UTC 2008-12-04)
Audio
ID : 1
Format : AC-3
Format/Info : Audio Coding 3
Mode extension : CM (complete main)
Format settings, Endianness : Big
Codec ID : 2000
Duration : 1h 27mn
Bit rate mode : Constant
Bit rate : 192 Kbps
Channel(s) : 2 channels
Channel positions : Front: L R
Sampling rate : 48.0 KHz
Bit depth : 16 bits
Compression mode : Lossy
Stream size : 120 MiB (16%)
Alignment : Split accross interleaves
Interleave, duration : 40 ms (1.00 video frame)
Interleave, preload duration : 500 ms

Скриншот c названием фильма

Скриншоты

[teatrix.ru].t5687.torrent 
Торрент: Зарегистрирован [ 2015-10-09 00:55 ] · 76946D72A627237D803467EB2B5A07E3216C7628

Скачать .torrent

Скачать

15 KB

Статус: проверено
Скачан: 0 раз
Размер: 749 MB
terms.php



Быстрый ответ

Имя:

      
Для отправки сообщений необходимо включить JavaScript
Показать сообщения:    

Текущее время: 05-Дек 19:38

Часовой пояс: UTC + 3


Вы можете начинать темы
Вы можете отвечать на сообщения
Вы не можете редактировать свои сообщения
Вы не можете удалять свои сообщения
Вы не можете голосовать в опросах
Вы не можете прикреплять файлы к сообщениям
Вы можете скачивать файлы