Одна девушка на двоих / Девушка, разрезанная надвое / La fille coupee en deux / La fille coupe en deux (Клод Шаброль / Claude Chabrol) [2007, Франция, Германия, триллер, драма, DVDRip] DVO (Элром) + Sub Rus + Original Fre


Статистика раздачи [Обновить пиров]
Размер:  1.6 GB   |    Зарегистрирован:  1 год 1 месяц   |    Скачан:  0 раз

Полного источника не было: Никогда

 
   
 
 
 

[Цитировать]

Одна девушка на двоих / Девушка, разрезанная надвое / La fille coupee en deux / La fille coupe en deux
Страна: Франция, Германия
Жанр: триллер, драма
Год выпуска: 2007
Продолжительность: 01:49:56
Перевод: Профессиональный (двухголосый закадровый) - Элром
Cубтитры: русские
Оригинальная аудиодорожка: французский

Режиссер: Клод Шаброль / Claude Chabrol
В ролях: Людивин Санье, Бенуа Мажимель, Франсуа Берлеан, Матильда Мэй, Каролин Сихоль, Мари Бунель, Тома Шаброль
Описание: Героиня фильма, ведущая прогноз погоды по ТВ, Габриэлла, влюбившись в старого писателя, не готового разделить ее чувства до конца и расстаться с женой, пускается во все тяжкие. Девушка мстит ему замужеством с молодым неуравновешенным и богатеньким сверстником… С юмором и любопытством к своим героям, Клод Шаброль рассказывает чудесную историю о роковой любви и ее волшебных способностях все разрушать…
Качество видео: DVDRip
Формат видео: AVI
Видео: 704x384 (1.83:1), 25 fps, XviD build 73 ~1694 kbps avg, 0.25 bit/pixel
Аудио: 48 kHz, AC3 Dolby Digital, 2/0 (L,R) ch, ~192 kbps - двухголосый
Аудио: 48 kHz, AC3 Dolby Digital, 2/0 (L,R) ch, ~192 kbps - оригинал

MediaInfo

Общее
Полное имя : H:\La.fille.coupee.en.deux.2007.dvdrip_[1.45]_[teko]\La.fille.coupee.en.deux.2007.dvdrip_[1.45].avi
Формат : AVI
Формат/Информация : Audio Video Interleave
Размер файла : 1,46 Гбайт
Продолжительность : 1 ч. 49 м.
Общий поток : 1896 Кбит/сек
Программа кодирования : VirtualDubMod 1.5.10.3 | www.virtualdub-fr.org || (build 2550/release)
Библиотека кодирования : VirtualDubMod build 2550/release
Видео
Идентификатор : 0
Формат : MPEG-4 Visual
Профиль формата : Advanced Simple@L5
Параметр BVOP формата : 1
Параметр QPel формата : Нет
Параметр GMC формата : Без точки перехода
Параметр матрицы формата : Выборочная
Идентификатор кодека : XVID
Идентификатор кодека/Подсказка : XviD
Продолжительность : 1 ч. 49 м.
Битрейт : 1695 Кбит/сек
Ширина : 704 пикселя
Высота : 384 пикселя
Соотношение сторон : 1,85:1
Частота кадров : 25,000 кадров/сек
Цветовое пространство : YUV
Субдискретизация насыщенности : 4:2:0
Битовая глубина : 8 бит
Тип развёртки : Прогрессивная
Метод сжатия : С потерями
Бит/(Пиксели*Кадры) : 0.251
Размер потока : 1,30 Гбайт (89%)
Библиотека кодирования : XviD 73
Аудио
Идентификатор : 1
Формат : AC-3
Формат/Информация : Audio Coding 3
Расширение режима : CM (complete main)
Параметр Endianness формата : Big
Идентификатор кодека : 2000
Продолжительность : 1 ч. 49 м.
Вид битрейта : Постоянный
Битрейт : 192 Кбит/сек
Каналы : 2 канала
Расположение каналов : Front: L R
Частота : 48,0 КГц
Битовая глубина : 16 бит
Метод сжатия : С потерями
Размер потока : 151 Мбайт (10%)
Выравнивание : Разделение по промежуткам
Продолжительность промежутка : 40 мс. (1,00 видеокадр)
Время предзагрузки промежутка : 500 мс.
[teatrix.ru].t5689.torrent 
Торрент: Зарегистрирован [ 2015-10-09 00:55 ] · B2C01145231B3282BD62D76079EEBB49CB637EAA

Скачать .torrent

Скачать

17 KB

Статус: проверено
Скачан: 0 раз
Размер: 1.6 GB
terms.php



Быстрый ответ

Имя:

      
Для отправки сообщений необходимо включить JavaScript
Показать сообщения:    

Текущее время: 05-Дек 01:19

Часовой пояс: UTC + 3


Вы можете начинать темы
Вы можете отвечать на сообщения
Вы не можете редактировать свои сообщения
Вы не можете удалять свои сообщения
Вы не можете голосовать в опросах
Вы не можете прикреплять файлы к сообщениям
Вы можете скачивать файлы