Баран / Mouton / Sheep (Жиль Дероо / Gilles Deroo, Марианн Пистон / Marianne Pistone) [2013, Франция, драма, DVDRip-AVC] Sub Rus, Eng + Original Fre


Статистика раздачи [Обновить пиров]
Размер:  1.01 GB   |    Зарегистрирован:  1 год 1 месяц   |    Скачан:  0 раз

Полного источника не было: Никогда

 
   
 
 
 

[Цитировать]

Баран / Mouton / Sheep
Страна: Франция
Жанр: Драма
Год выпуска: 2013
Продолжительность: 01:36:25
Перевод: Субтитры
Cубтитры: русские, английские
Оригинальная аудиодорожка: французский
Режиссер: Жиль Дероо /Gilles Deroo, Марианн Пистон / Marianne Pistone
В ролях: Мишель Морментен / Michael Mormentyn, Давид Мерабэ / David Merabet, Одри Клеман / Audrey Clément
Описание: В 2013 году на Международном кинофестивале в Локарно фильм удостоился награды за лучший дебют и тут же приобрел в ряду европейский киноманов статус культового. Это история о жизни провинциального французского городка в Нижней Нормандии в период зимнего сезона. В отсутствии туристов, местные жители спокойно гуляют, болтают, едят, работают. Только во всем этом чувствуется непреодолимая хандра, а за ней всплывают необратимые последствия. Жиль Дероо и Мариан Пистон на первый взгляд сняли ничем не примечательное кино. Однако они вкладывают в него множество аллюзий, разгадывать которые настоящее наслаждение для любого интеллектуала.
Сэмпл: http://sendfile.su/1142518
Качество видео: DVDRip
Формат видео: MKV
Видео: 1308 Kbps, 720x552@981x552, 25.000 fps, AVC (High@L4.1) (CABAC/8 Ref Frames)
Аудио: 192 Kbps, 44.1 Khz, 16 bits, 2 channels, AC-3
Формат субтитров: softsub (SRT)

MediaInfo

General
Unique ID : 230965849464093626325886876519599345639 (0xADC26791558B5834A660AD15088E8FE7)
Complete name : C:\Users\Владелец\Desktop\Баран\Mouton (Sheep) - 2013 - Gilles Deroo, Marianne Pistone.mkv
Format : Matroska
Format version : Version 2
File size : 1.01 GiB
Duration : 1h 36mn
Overall bit rate : 1 503 Kbps
Encoded date : UTC 2015-07-22 18:30:57
Writing application : mkvmerge v7.7.0 ('Six Voices') 32bit built on Feb 28 2015 23:23:00
Writing library : libebml v1.3.1 + libmatroska v1.4.2
DURATION : 01:35:30.248000000
NUMBER_OF_FRAMES : 425
NUMBER_OF_BYTES : 9814
_STATISTICS_WRITING_APP : mkvmerge v7.7.0 ('Six Voices') 32bit built on Feb 28 2015 23:23:00
_STATISTICS_WRITING_DATE_UTC : 2015-07-22 18:30:57
_STATISTICS_TAGS : BPS DURATION NUMBER_OF_FRAMES NUMBER_OF_BYTES
Video
ID : 1
Format : AVC
Format/Info : Advanced Video Codec
Format profile : High@L4.1
Format settings, CABAC : Yes
Format settings, ReFrames : 8 frames
Codec ID : V_MPEG4/ISO/AVC
Duration : 1h 36mn
Bit rate : 1 308 Kbps
Width : 720 pixels
Height : 552 pixels
Display aspect ratio : 16:9
Original display aspect ratio : 2.35:1
Frame rate mode : Constant
Frame rate : 25.000 fps
Color space : YUV
Chroma subsampling : 4:2:0
Bit depth : 8 bits
Scan type : Progressive
Bits/(Pixel*Frame) : 0.132
Stream size : 884 MiB (85%)
Writing library : x264 core 146 r2538 121396c
Encoding settings : cabac=1 / ref=8 / deblock=1:-3:-3 / analyse=0x3:0x133 / me=umh / subme=9 / psy=1 / psy_rd=1.00:0.15 / mixed_ref=1 / me_range=28 / chroma_me=1 / trellis=2 / 8x8dct=1 / cqm=0 / deadzone=21,11 / fast_pskip=0 / chroma_qp_offset=-3 / threads=3 / lookahead_threads=1 / sliced_threads=0 / nr=0 / decimate=0 / interlaced=0 / bluray_compat=0 / constrained_intra=0 / bframes=16 / b_pyramid=2 / b_adapt=2 / b_bias=0 / direct=3 / weightb=1 / open_gop=0 / weightp=2 / keyint=250 / keyint_min=25 / scenecut=40 / intra_refresh=0 / rc_lookahead=60 / rc=2pass / mbtree=1 / bitrate=1308 / ratetol=3.0 / qcomp=0.60 / qpmin=0 / qpmax=69 / qpstep=4 / cplxblur=20.0 / qblur=0.5 / vbv_maxrate=14000 / vbv_bufsize=14000 / nal_hrd=none / filler=0 / ip_ratio=1.40 / aq=1:1.00
Default : Yes
Forced : No
Audio
ID : 2
Format : AC-3
Format/Info : Audio Coding 3
Mode extension : CM (complete main)
Format settings, Endianness : Big
Codec ID : A_AC3
Duration : 1h 36mn
Bit rate mode : Constant
Bit rate : 192 Kbps
Channel(s) : 2 channels
Channel positions : Front: L R
Sampling rate : 44.1 KHz
Bit depth : 16 bits
Compression mode : Lossy
Stream size : 132 MiB (13%)
Default : Yes
Forced : No
Text
ID : 3
Format : UTF-8
Codec ID : S_TEXT/UTF8
Codec ID/Info : UTF-8 Plain Text
Default : Yes
Forced : No

Скриншот c названием фильма

Скриншоты

[teatrix.ru].t5690.torrent 
Торрент: Зарегистрирован [ 2015-10-09 00:55 ] · 9C28040339485760B86DD445EA241A4606389444

Скачать .torrent

Скачать

11 KB

Статус: проверено
Скачан: 0 раз
Размер: 1.01 GB
terms.php



Быстрый ответ

Имя:

      
Для отправки сообщений необходимо включить JavaScript
Показать сообщения:    

Текущее время: 04-Дек 04:54

Часовой пояс: UTC + 3


Вы можете начинать темы
Вы можете отвечать на сообщения
Вы не можете редактировать свои сообщения
Вы не можете удалять свои сообщения
Вы не можете голосовать в опросах
Вы не можете прикреплять файлы к сообщениям
Вы можете скачивать файлы