Нанайо / Nanayo / Nanayomachi / If Only the Whole World Loved Me / Seven Nights (Наоми Кавасэ / Naomi Kawase) [2008, Япония, Таиланд, комедия, драма, DVB-AVC] MVO (Kino Polska)


Статистика раздачи [Обновить пиров]
Размер:  700 MB   |    Зарегистрирован:  1 год 1 месяц   |    Скачан:  0 раз

Полного источника не было: Никогда

 
   
 
 
 

[Цитировать]

Нанайо
Nanayo- Страна: Япония, Таиланд
Жанр: комедия, драма
Год выпуска: 2008
Продолжительность: 01:25:50Перевод: Профессиональный (многоголосый закадровый) по заказу Kino Polska на производственно-технической базе Студии "Акцент"
Cубтитры: нет
Режиссер: Наоми Кавасэ / Naomi Kawase
В ролях: Киёко Хасегава / Kyōko Hasegawa (Saiko), Грегуар Колен / Grégoire Colin (Greg), Дзюн Мураками / Jun Murakami (Good-looking monk)
Описание: Оператор Каролин Шампетье / Caroline Champetier.
Фильм рассказывает об отношениях нескольких людей разных национальностей, волею судьбы оказавшихся под одной крышей в доме посреди леса. За неимением общего языка, инструментом их общения становится искусство традиционного тайского массажа. Удалившись от гонки современной жизни, они образуют странную, но счастливую псевдосемью. (badsteel)
Доп. информация: Filmbox Arthouse IPTV. На территории РФ возрастное ограничение 18+.
Участник Mar del Plata Film Festival 2009; Hong Kong Asian Film Festival 2009.

Качество видео: DVB-AVC
Формат видео: MKV
Видео: AVC (H.264), 720x576@1024x576 (16:9), 25 fps, ~989 kbps avg, 0.105 bit/pixel
Аудио: MPEG Audio 2, 2 ch, 48 kHz, ~128.00 kbps avg

MediaInfo

[pre]Общее
Уникальный идентификатор : 177624125048495364842304976643237654155 (0x85A129813291FB8195BCD7984E60AE8B)
Полное имя : F:\My Torrents 3\[apreder]Nanayo(2008)DVB.mkv
Формат : Matroska
Версия формата : Version 2
Размер файла : 700 Мбайт
Продолжительность : 1 ч. 25 м.
Общий поток : 1140 Кбит/сек
Дата кодирования : UTC 2015-08-01 17:04:01
Программа кодирования : mkvmerge v8.2.0 ('World of Adventure') 64bit
Библиотека кодирования : libebml v1.3.1 + libmatroska v1.4.2
Attachements : cover.jpg / cover_small.jpg
Видео
Идентификатор : 2
Формат : AVC
Формат/Информация : Advanced Video Codec
Профиль формата : Main@L3
Параметр CABAC формата : Да
Параметр ReFrames формата : 3 кадра
Идентификатор кодека : V_MPEG4/ISO/AVC
Продолжительность : 1 ч. 25 м.
Битрейт : 989 Кбит/сек
Ширина : 720 пикселей
Высота : 576 пикселей
Соотношение сторон : 16:9
Соотношение сторон в оригинале : 16:9
Режим частоты кадров : Постоянный
Частота кадров : 22,727 кадра/сек
Частота кадров в оригинале : 25,000 кадров/сек
Стандарт вещания : Component
Цветовое пространство : YUV
Субдискретизация насыщенности : 4:2:0
Битовая глубина : 8 бит
Тип развёртки : Чересстрочная
Порядок развёртки : Верхнее поле первое
Бит/(Пиксели*Кадры) : 0.105
Размер потока : 607 Мбайт (87%)
Default : Да
Forced : Нет
colour_range : Limited
Основные цвета : BT.601 PAL
Характеристики трансфера : BT.470 System B, BT.470 System G
Коэффициенты матрицы : BT.601
Аудио
Идентификатор : 1
Формат : MPEG Audio
Версия формата : Version 1
Профиль формата : Layer 2
Идентификатор кодека : A_MPEG/L2
Идентификатор кодека/Подсказка : MP2
Продолжительность : 1 ч. 25 м.
Вид битрейта : Постоянный
Битрейт : 128 Кбит/сек
Каналы : 2 канала
Частота : 48,0 КГц
Метод сжатия : С потерями
Задержка видео : -3 мс.
Размер потока : 78,6 Мбайт (11%)
Язык : Russian
Default : Да
Forced : Нет

Скриншот c названием фильма

Скриншоты


Резервные скриншоты


-[2'518]
[teatrix.ru].t5691.torrent 
Торрент: Зарегистрирован [ 2015-10-09 00:55 ] · 8BD29B9D46DB9B005A64D5D715E7382D98E25C0B

Скачать .torrent

Скачать

14 KB

Статус: проверено
Скачан: 0 раз
Размер: 700 MB
terms.php



Быстрый ответ

Имя:

      
Для отправки сообщений необходимо включить JavaScript
Показать сообщения:    

Текущее время: 08-Дек 01:18

Часовой пояс: UTC + 3


Вы можете начинать темы
Вы можете отвечать на сообщения
Вы не можете редактировать свои сообщения
Вы не можете удалять свои сообщения
Вы не можете голосовать в опросах
Вы не можете прикреплять файлы к сообщениям
Вы можете скачивать файлы