Жизнь Джимми / Jimmy della collina (Энрико Пау / Enrico Pau) [2006, Италия, драма, экранизация, DVB-AVC] MVO (Kino Polska)


Статистика раздачи [Обновить пиров]
Размер:  662 MB   |    Зарегистрирован:  1 год 1 месяц   |    Скачан:  0 раз

Полного источника не было: Никогда

 
   
 
 
 

[Цитировать]

Жизнь Джимми
Jimmy della collina- Страна: Италия
Жанр: драма, экранизация
Год выпуска: 2006
Продолжительность: 01:28:13Перевод: Профессиональный (многоголосый закадровый) по заказу Kino Polska на производственно-технической базе Студии "Акцент"
Cубтитры: нет
Режиссер: Энрико Пау / Enrico Pau
В ролях: Никола Адамо / Nicola Adamo (Jimmy), Валентина Карнелутти / Valentina Carnelutti (Claudia), Франческо Ориго / Francesco Origo (Don Ettore Cannavera), Массимилиано Медда / Massimiliano Medda (L'educatore), Федерико Карта / Federico Carta (Simone), Катерина Сильва / Caterina Silva (La prostituta slava)
Описание: По одноименному роману Массимо Карлотто / Massimo Carlotto (2002), получившему престижную литературную премию Premio Ciliegia d'oro 2003.
В поисках легкой жизни упрямый парень с Сардинии с бунтарским духом решился на ограбление, но был арестован. Во время задержания он познакомился с Клаудией, бывшей заключенной, с которой у него начинаются сложные отношения на пути к социальной реабилитации и освобождению…
Доп. информация: Filmbox Arthouse IPTV
Награды: приз Международной конфедерации художественного кино (C.I.C.A.E.) Locarno International Film Festival 2006 + номинация на "Золотой леопард"; специальное упоминание Bastia Italian Film Festival 2007; номинация на "Серебряную ленту" за лучший звук Italian National Syndicate of Film Journalists 2008.

Качество видео: DVB-AVC
Формат видео: MKV
Видео: AVC (H.264), 720x576@1024x576 (16:9), 25 fps, ~900 kbps avg, 0.087 bit/pixel
Аудио: MPEG Audio 2, 2 ch, 48 kHz, ~128.00 kbps avg

MediaInfo

ОбщееУникальный идентификатор : 175912817509160963101998874926307634839 (0x845793875D34BCCD9CADE16DABF06E97)Полное имя : F:\My Torrents 3\[apreder]Jimmy_della_collina(2006)DVB.mkvФормат : MatroskaВерсия формата : Version 2Размер файла : 662 МбайтПродолжительность : 1 ч. 28 м.Общий поток : 1049 Кбит/секДата кодирования : UTC 2015-08-01 13:14:13Программа кодирования : mkvmerge v8.2.0 ('World of Adventure') 64bitБиблиотека кодирования : libebml v1.3.1 + libmatroska v1.4.2Attachements : cover.jpg / cover_small.jpg
ВидеоИдентификатор : 2Формат : AVCФормат/Информация : Advanced Video CodecПрофиль формата : Main@L3Параметр CABAC формата : ДаПараметр ReFrames формата : 3 кадраПараметр GOP формата : M=4, N=32Идентификатор кодека : V_MPEG4/ISO/AVCПродолжительность : 1 ч. 28 м.Битрейт : 900 Кбит/секШирина : 720 пикселейВысота : 576 пикселейСоотношение сторон : 16:9Соотношение сторон в оригинале : 16:9Режим частоты кадров : ПостоянныйЧастота кадров : 25,000 кадров/секСтандарт вещания : ComponentЦветовое пространство : YUVСубдискретизация насыщенности : 4:2:0Битовая глубина : 8 битТип развёртки : ПрогрессивнаяПорядок развёртки : Верхнее поле первоеБит/(Пиксели*Кадры) : 0.087Размер потока : 568 Мбайт (86%)Default : ДаForced : Нетcolour_range : LimitedОсновные цвета : BT.601 PALХарактеристики трансфера : BT.470 System B, BT.470 System GКоэффициенты матрицы : BT.601
АудиоИдентификатор : 1Формат : MPEG AudioВерсия формата : Version 1Профиль формата : Layer 2Идентификатор кодека : A_MPEG/L2Идентификатор кодека/Подсказка : MP2Продолжительность : 1 ч. 28 м.Вид битрейта : ПостоянныйБитрейт : 128 Кбит/секКаналы : 2 каналаЧастота : 48,0 КГцМетод сжатия : С потерямиЗадержка видео : -18 мс.Размер потока : 80,8 Мбайт (12%)Язык : RussianDefault : ДаForced : Нет

Скриншот c названием фильма

Название произносится http://multi-up.com/1060922

Скриншоты


Резервные скриншоты


-[2'515]
[teatrix.ru].t5692.torrent 
Торрент: Зарегистрирован [ 2015-10-09 00:55 ] · 4A890FF8AABFCDF4D34BD4957E771DCEFB9720F0

Скачать .torrent

Скачать

13 KB

Статус: проверено
Скачан: 0 раз
Размер: 662 MB
terms.php



Быстрый ответ

Имя:

      
Для отправки сообщений необходимо включить JavaScript
Показать сообщения:    

Текущее время: 04-Дек 17:17

Часовой пояс: UTC + 3


Вы можете начинать темы
Вы можете отвечать на сообщения
Вы не можете редактировать свои сообщения
Вы не можете удалять свои сообщения
Вы не можете голосовать в опросах
Вы не можете прикреплять файлы к сообщениям
Вы можете скачивать файлы