Линии Веллингтона / Linhas de Wellington (Валерия Сармиенто / Valeria Sarmiento) [2012, Франция, Португалия, драма, военный, HDRip] Sub Rus + Original Por


 

[Цитировать]

Линии Веллингтона / Linhas de Wellington
Страна: Франция, Португалия
Жанр: драма, военный
Год выпуска: 2012
Продолжительность: 02:31:31
Перевод: Субтитры - Playball
Cубтитры: русские
Оригинальная аудиодорожка: португальский

Режиссер: Валерия Сармиенто / Valeria Sarmiento
В ролях: Нуну Лопеш, Сорая Чавес, Мариса Паредес, Джон Малкович, Карлоту Котта, Виктория Герра, Марселу Уржеги, Джемайма Уэст, Хосе Афонсо Пиментел, Мигель Боргес, Матьё Амальрик, Мельвиль Пупо, Филипе Варгас, Жоао Арраис, Эльза Зильберштейн, Венсан Перес, Катрин Денёв, Изабель Юппер, Мишель Пикколи, Кьяра Мастроянни
Описание: 27 сентября 1810 года французская армия под командованием маршала Массена была разгромлена англо-португальской армией генерала Веллингтона (Джон Малкович) в португальском районе под названием Серра-ду-Бусаку. Несмотря на победу над французами, англичане и португальцы были вынуждены отступить, так как враг значительно превосходил их числом.
Фильм «Линии Веллингтона» — история о людях, которые попали в жернова военных действий между двумя армиями. Представители самых разных социальных слоев — военные и штатские, женщины и дети, молодые и старые — были вынуждены оторваться от своего привычного уклада жизни и отправиться в тяжелое путешествие через холмы и долины, мимо разрушенных деревень, сожженных лесов и опустошенных полей.

Качество видео: HDRip
Формат видео: AVI
Видео: 720x304 (2.37:1), 24 fps, XviD build 73 ~1585 kbps avg, 0.30 bit/pixel
Аудио: 48 kHz, AC3 Dolby Digital, 3/2 (L,C,R,l,r) + LFE ch, ~448 kbps

Фрагмент субтитров

671
01:07:37,770 --> 01:07:42,687
Когда их разгромили англичане,
французы повели нас за собой.
672
01:07:42,812 --> 01:07:46,230
Мы воевали в Австрии
с Гомесом Фрейре.
673
01:07:46,521 --> 01:07:49,449
Тироль. Бомерсдорф. Ваграм.
674
01:07:49,939 --> 01:07:53,189
Я получил Орден Почетного Легиона,
но потерял иллюзии.
675
01:07:53,190 --> 01:07:58,264
Мы убили больше нищих,
чем дворян...
676
01:08:10,318 --> 01:08:11,361
Отставить!
677
01:08:16,111 --> 01:08:19,528
Ни свободы, ни равенства, ничего.
678
01:08:20,987 --> 01:08:26,071
Братство заключалось в разделе Европы
между братьями Наполеона.
679
01:08:26,072 --> 01:08:29,905
И когда я пересек границу
с Массена...
680
01:08:29,906 --> 01:08:31,103
дезертировал.
681
01:08:32,740 --> 01:08:36,199
Наконец, смог выдохнуть.
682
01:08:38,115 --> 01:08:39,692
Единственное о чем я мечтаю,
683
01:08:42,325 --> 01:08:48,576
увидеть Алфаму до того,
как меня повесят в Кампо де Сантанье.

MediaInfo

Общее
Полное имя : H:\Linhas.De.Wellington.2012.hdrip_[2.18]_[teko]\Linhas.De.Wellington.2012.hdrip_[2.18].avi
Формат : AVI
Формат/Информация : Audio Video Interleave
Профиль формата : OpenDML
Размер файла : 2,16 Гбайт
Продолжительность : 2 ч. 31 м.
Общий поток : 2041 Кбит/сек
Программа кодирования : VirtualDubMod 1.5.10.3 | www.virtualdub-fr.org || (build 2550/release)
Библиотека кодирования : VirtualDubMod build 2550/release
Видео
Идентификатор : 0
Формат : MPEG-4 Visual
Профиль формата : Advanced Simple@L5
Параметр BVOP формата : 1
Параметр QPel формата : Нет
Параметр GMC формата : Без точки перехода
Параметр матрицы формата : Выборочная
Идентификатор кодека : XVID
Идентификатор кодека/Подсказка : XviD
Продолжительность : 2 ч. 31 м.
Битрейт : 1581 Кбит/сек
Ширина : 720 пикселей
Высота : 304 пикселя
Соотношение сторон : 2,35:1
Частота кадров : 24,000 кадра/сек
Цветовое пространство : YUV
Субдискретизация насыщенности : 4:2:0
Битовая глубина : 8 бит
Тип развёртки : Прогрессивная
Метод сжатия : С потерями
Бит/(Пиксели*Кадры) : 0.301
Размер потока : 1,67 Гбайт (77%)
Библиотека кодирования : XviD 73
Аудио
Идентификатор : 1
Формат : AC-3
Формат/Информация : Audio Coding 3
Расширение режима : CM (complete main)
Параметр Endianness формата : Big
Идентификатор кодека : 2000
Продолжительность : 2 ч. 31 м.
Вид битрейта : Постоянный
Битрейт : 448 Кбит/сек
Каналы : 6 каналов
Расположение каналов : Front: L C R, Side: L R, LFE
Частота : 48,0 КГц
Битовая глубина : 16 бит
Метод сжатия : С потерями
Размер потока : 486 Мбайт (22%)
Выравнивание : Разделение по промежуткам
Продолжительность промежутка : 42 мс. (1,00 видеокадр)
Время предзагрузки промежутка : 500 мс.



Показать сообщения:    

Текущее время: 07-Дек 13:41

Часовой пояс: UTC + 3


Вы не можете начинать темы
Вы не можете отвечать на сообщения
Вы не можете редактировать свои сообщения
Вы не можете удалять свои сообщения
Вы не можете голосовать в опросах
Вы не можете прикреплять файлы к сообщениям
Вы не можете скачивать файлы