Мамочка / Mommy (Ксавье Долан / Xavier Dolan) [2014, Канада, Драма, HDRip] Dub (iTunes)


 

[Цитировать]

Мамочка / Mommy
Страна: Канада
Жанр: Драма
Год выпуска: 2014
Продолжительность: 02:18:27
Перевод: Профессиональный (дублированный) iTunes
Cубтитры: нет
Режиссер: Ксавье Долан / Xavier Dolan
В ролях: Энн Дорваль, Антуан-Оливье Пилон, Сюзанн Клеман, Патрик Уард, Александр Гойетт, Мишель Литюак, Изабель Нелисс, Пьер-Ив Кардинал, Вивиан Паскаль, Натали Амель-Руа
Описание: Яркая и взбалмошная вдова Диана забирает из интерната сына-подростка и полна решимости начать новую жизнь. Со Стивом они бы жили душа в душу, но вспышки гнева импульсивного сына то и дело подрывают шаткое равновесие в семье. На подмогу приходит скромная заикающаяся соседка Кайла, и в доме на время воцаряется идиллия, но как долго это продлится?
Доп. информация: HDRip от Scarabey
Сэмпл: http://multi-up.com/1060778
Качество видео: HDRip
Формат видео: AVI
Видео: 688x384 (1.79:1), 23.976 fps, XviD build 73 ~1882 kbps avg, 0.30 bit/pixel
Аудио: 48 kHz, AC3 Dolby Digital, 3/2 (L,C,R,l,r) + LFE ch, ~384 kbps

MediaInfo

Формат : AVI
Формат/Информация : Audio Video Interleave
Профиль формата : OpenDML
Размер файла : 2,20 Гбайт
Продолжительность : 2 ч. 18 м.
Общий поток : 2273 Кбит/сек
Программа кодирования : VirtualDubMod 1.5.10.3 | www.virtualdub-fr.org || (build 2550/release)
Библиотека кодирования : VirtualDubMod build 2550/release
Видео
Идентификатор : 0
Формат : MPEG-4 Visual
Профиль формата : Advanced Simple@L5
Параметр BVOP формата : 1
Параметр QPel формата : Нет
Параметр GMC формата : Без точки перехода
Параметр матрицы формата : Выборочная
Идентификатор кодека : XVID
Идентификатор кодека/Подсказка : XviD
Продолжительность : 2 ч. 18 м.
Битрейт : 1877 Кбит/сек
Ширина : 688 пикселей
Высота : 384 пикселя
Соотношение сторон : 16:9
Частота кадров : 23,976 кадра/сек
Цветовое пространство : YUV
Субдискретизация насыщенности : 4:2:0
Битовая глубина : 8 бит
Тип развёртки : Прогрессивная
Метод сжатия : С потерями
Бит/(Пиксели*Кадры) : 0.296
Размер потока : 1,82 Гбайт (83%)
Библиотека кодирования : XviD 73
Аудио
Идентификатор : 1
Формат : AC-3
Формат/Информация : Audio Coding 3
Расширение режима : CM (complete main)
Параметр Endianness формата : Big
Идентификатор кодека : 2000
Продолжительность : 2 ч. 18 м.
Вид битрейта : Постоянный
Битрейт : 384 Кбит/сек
Каналы : 6 каналов
Расположение каналов : Front: L C R, Side: L R, LFE
Частота : 48,0 КГц
Битовая глубина : 16 бит
Метод сжатия : С потерями
Размер потока : 380 Мбайт (17%)
Выравнивание : Разделение по промежуткам
Продолжительность промежутка : 42 мс. (1,00 видеокадр)
Время предзагрузки промежутка : 500 мс.

Скриншот c названием фильма

Скриншоты









Показать сообщения:    

Текущее время: 08-Дек 07:08

Часовой пояс: UTC + 3


Вы не можете начинать темы
Вы не можете отвечать на сообщения
Вы не можете редактировать свои сообщения
Вы не можете удалять свои сообщения
Вы не можете голосовать в опросах
Вы не можете прикреплять файлы к сообщениям
Вы не можете скачивать файлы