Шоссе Энтузиастов (Нормунд Лацис) [2002, Россия, мелодрама, комикс, DVD5] + Original Rus


Статистика раздачи [Обновить пиров]
Размер:  2.47 GB   |    Зарегистрирован:  1 год 2 месяца   |    Скачан:  0 раз

Полного источника не было: Никогда

 
   
 
 
 

[Цитировать]

Шоссе Энтузиастов
Страна: Россия
Жанр: мелодрама, комикс
Год выпуска: 2002
Продолжительность: 01:14:26
Перевод: Не требуется
Cубтитры: нет
Оригинальная аудиодорожка: русский
Режиссер: Нормунд Лацис
В ролях: Алекс Зубаржук, Егор Нагаен, Дмитрий Пригов, Александр Ф. Скляр, Егор Никонов, голос Володарского
Описание:
Добро пожаловать на Шоссе Энтузиастов, по которому два хороших приятеля отправляются в путешествие. Вернее, пытаются слинять из города. Что-то связано с деньгами. Или со службой в армии? По ходу дела красят на шоссе стойки рекламных щитов. Почему-то разговаривают по-польски ( или по-чешски?). Переводит их ахинею голос Володарского. Состояние, в котором герои пребывают, не позволяет им принимать адекватные решения и воздействовать на события. Изначальная цель их путешествия теряется в затуманенных лабиринтах сознания.
Параллельно два киллера готовят убийство. Перемещаются с точки на точку, получая команды по мобильнику. Разговаривают строго по немецки. Вероятно, в целях конспирации. Переводит их ахинею Володарский. Девушка голосует на дороге. Разговаривает по-русски (в целях конспирации). Человек в галстуке получает кейс с деньгами. Вообще не разговаривает.
Так закручивается история. Погибают не все.
______________________
Это смесь домашнего видео, рекламы, комиксов, чёрного юмора, телевизионных штампов, панк-культуры, трэша и разных культурных течений.
/Режиссёр Лацис
______________________
Сэмпл: http://multi-up.com/1062000
Качество видео: DVD5
Формат видео: DVD Video
Видео: PAL 4:3 (720x576) VBR, ~ 4450 kbps avg
Аудио: MPEG2, 2.0, 256 kbps

MediaInfo

GeneralFormat : MPEG-PSFile size : 1 024 MiBDuration : 30mn 11sOverall bit rate : 4 742 Kbps
VideoID : 224 (0xE0)Format : MPEG VideoFormat version : Version 2Format profile : Main@MainFormat settings, BVOP : YesFormat settings, Matrix : CustomFormat settings, GOP : M=3, N=12Duration : 30mn 11sBit rate : 4 380 KbpsWidth : 720 pixelsHeight : 576 pixelsDisplay aspect ratio : 4:3Frame rate : 25.000 fpsStandard : PALColor space : YUVChroma subsampling : 4:2:0Bit depth : 8 bitsScan type : InterlacedScan order : Top Field FirstCompression mode : LossyBits/(Pixel*Frame) : 0.422Stream size : 948 MiB (93%)
AudioID : 192 (0xC0)Format : MPEG AudioFormat version : Version 1Format profile : Layer 2Duration : 30mn 10sBit rate mode : ConstantBit rate : 256 KbpsChannel(s) : 2 channelsSampling rate : 48.0 KHzCompression mode : LossyDelay relative to video : -80msStream size : 55.3 MiB (5%)

DVDInfo

Title: Шоссе ЭнтузиастовSize: 2.47 Gb ( 2 585 784,00 KBytes ) - DVD-5Enabled regions: 1, 2, 3, 4, 5, 6, 7, 8
VTS_01 : Play Length: 01:14:26 Video: PAL 4:3 (720x576) VBR Audio: Not specified, MPA, Delay = 72 mSec
Subtitles: Not specified

Скриншоты





Обложка

[teatrix.ru].t5695.torrent 
Торрент: Зарегистрирован [ 2015-10-09 00:55 ] · 39D8FEA1B1FEF1B022C891606FDF56FBE0FD4F8E

Скачать .torrent

Скачать

13 KB

Статус: проверено
Скачан: 0 раз
Размер: 2.47 GB
terms.php



Быстрый ответ

Имя:

      
Для отправки сообщений необходимо включить JavaScript
Показать сообщения:    

Текущее время: 09-Дек 14:42

Часовой пояс: UTC + 3


Вы можете начинать темы
Вы можете отвечать на сообщения
Вы не можете редактировать свои сообщения
Вы не можете удалять свои сообщения
Вы не можете голосовать в опросах
Вы не можете прикреплять файлы к сообщениям
Вы можете скачивать файлы