Пыль времени / The Dust of Time / Trilogia II: I skoni tou hronou (Тео Ангелопулос / Theo Angelopoulos) [2008, Греция, Италия, Германия, Россия, Франция, Драма, HDRip] Dub + Original (Eng) + Sub (Rus, Eng)


 

[Цитировать]

Пыль времени / The Dust of Time / Trilogia II: I skoni tou hronou- Страна: Греция, Италия, Германия, Россия, Франция
Жанр: Драма
Год выпуска: 2008
Продолжительность: 02:07:48-Перевод: Профессиональный (дублированный)
Cубтитры: русские, английские, английские (на неанглийскую речь) (внешние .srt)
Оригинальная аудиодорожка: английский-Режиссер: Тео Ангелопулос / Theo Angelopoulos-В ролях: Уиллем Дефо, Бруно Ганц, Мишель Пикколи, Ирен Жакоб, Кристиана Пауль, Костас Апостолидис, Алессия Франкини, Валентина Карнелутти, Ненад Лучич-Описание: История жизни американского режиссера греческого происхождения, названного просто А., с момента его рождения в 1953 году и до наших дней. Это история войн, политических переворотов, великих надежд и разочарований - история, полная глубокой печали. В "Пыли времени", где зритель встречается с Элени и Спиросом, действие разворачивается во второй половине века - с 1953 года по первое утро нового тысячелетия. Конец культа Сталина, положенный ХХ съездом КПСС, отстранение с поста президента США Никсона в связи с уотергейтским скандалом, падение Берлинской стены.-Доп. информация: за синхронизацию звуковой дорожки спасибо Нордер-Sample | IMDB | КиноПоиск-Тип релиза: HDRip [исх. BDRip 720p]
Формат видео: AVI-Видео: 720x384 (1.88:1), 23.976 fps, XviD build 50, 1555 kbps avg, 0.23 bit/pixel
Аудио 1: 48 kHz, AC3 Dolby Digital, 3/2 (L,C,R,l,r) + LFE ch, 448.00 kbps avg [Russian_Dub]
Аудио 2: 48 kHz, AC3 Dolby Digital, 3/2 (L,C,R,l,r) + LFE ch, 448.00 kbps avg [Original_Eng]-

MediaInfo

General
Complete name : D:\Мои релизы\The Dust of Time_HDRip_RG_All_Films\The Dust of Time_HDRip_RG_All_Films.avi
Format : AVI
Format/Info : Audio Video Interleave
Format profile : OpenDML
File size : 2.19 GiB
Duration : 2h 7mn
Overall bit rate : 2 458 Kbps
Writing application : VirtualDubMod 1.6.0.0 SURROUND (build 2560/release)
Writing library : VirtualDubMod build 2560/release
Video
ID : 0
Format : MPEG-4 Visual
Format profile : Advanced Simple@L5
Format settings, BVOP : Yes
Format settings, QPel : No
Format settings, GMC : No warppoints
Format settings, Matrix : Custom
Codec ID : XVID
Codec ID/Hint : XviD
Duration : 2h 7mn
Bit rate : 1 545 Kbps
Width : 720 pixels
Height : 384 pixels
Display aspect ratio : 1.875
Frame rate : 23.976 fps
Color space : YUV
Chroma subsampling : 4:2:0
Bit depth : 8 bits
Scan type : Progressive
Compression mode : Lossy
Bits/(Pixel*Frame) : 0.233
Stream size : 1.38 GiB (63%)
Writing library : XviD 1.2.1 (UTC 2008-12-04)
Audio #1
ID : 1
Format : AC-3
Format/Info : Audio Coding 3
Mode extension : CM (complete main)
Codec ID : 2000
Duration : 2h 7mn
Bit rate mode : Constant
Bit rate : 448 Kbps
Channel(s) : 6 channels
Channel positions : Front: L C R, Side: L R, LFE
Sampling rate : 48.0 KHz
Bit depth : 16 bits
Compression mode : Lossy
Stream size : 410 MiB (18%)
Alignment : Split accross interleaves
Interleave, duration : 42 ms (1.00 video frame)
Interleave, preload duration : 500 ms
Audio #2
ID : 2
Format : AC-3
Format/Info : Audio Coding 3
Mode extension : CM (complete main)
Codec ID : 2000
Duration : 2h 7mn
Bit rate mode : Constant
Bit rate : 448 Kbps
Channel(s) : 6 channels
Channel positions : Front: L C R, Side: L R, LFE
Sampling rate : 48.0 KHz
Bit depth : 16 bits
Compression mode : Lossy
Stream size : 410 MiB (18%)
Alignment : Split accross interleaves
Interleave, duration : 42 ms (1.00 video frame)
Interleave, preload duration : 500 ms

Скриншоты




Показать сообщения:    

Текущее время: 08-Дек 09:02

Часовой пояс: UTC + 3


Вы не можете начинать темы
Вы не можете отвечать на сообщения
Вы не можете редактировать свои сообщения
Вы не можете удалять свои сообщения
Вы не можете голосовать в опросах
Вы не можете прикреплять файлы к сообщениям
Вы не можете скачивать файлы