Попытка преступления / Преступная жизнь Арчибальдо де Ла Круса / Ensayo de un crimen / The criminal life of Archibald de la Cruz (Луис Бунюэль / Luis Bunuel) [1955, Мексика, черная комедия, экранизация, DVB-AVC] MVO (Kino Polska)


Статистика раздачи [Обновить пиров]
Размер:  609 MB   |    Зарегистрирован:  1 год 3 месяца   |    Скачан:  0 раз

Полного источника не было: Никогда

 
   
 
 
 

[Цитировать]

Попытка преступления
Ensayo de un crimen- Страна: Мексика
Жанр: черная комедия, экранизация
Год выпуска: 1955
Продолжительность: 01:17:10Перевод: Профессиональный (многоголосый закадровый) по заказу Kino Polska на производственно-технической базе Студии "Акцент"
Cубтитры: нет
Режиссер: Луис Бунюэль / Luis Buñuel
В ролях: Мирослава Стерн / Miroslava Stern (Lavinia), Эрнесто Алонсо / Ernesto Alonso (Archibaldo de la Cruz), Рита Маседо / Rita Macedo (Patricia Terrazas), Ариадна Вельтер / Ariadna Welter (Carlota Cervantes)
Описание: По мотивам пьесы Родольфо Усигли / Rodolfo Usigli "Репетиция преступления / Ensayo de un crimen" (1942).
История взросления о неудавшейся карьере безвинного маньяка, усиленно примеряющего костюм "лишнего человека". Влекомый детским желанием убийства, он в каждой ситуации чужой: убивают даже не за него, а вне его…
Доп. информация: Filmbox Arthouse IPTV
Награды: премия "Серебряный Ариэль" 1956 за операторскую работу + номинация на "Золотой Ариэль" за режиссуру + 6 номинация на "Серебряный Ариэль" (лучший режиссер, актер - Ernesto Alonso, актриса второго плана - Rita Macedo, юный актер - Rafael Banquells hijo, сценарий, монтаж).

Качество видео: DVB-AVC
Формат видео: MKV
Видео: AVC (H.264), 720x576@1024x576 (16:9), 25 fps, ~953 kbps avg, 0.095 bit/pixel
Аудио: MPEG Audio 2, 2 ch, 48 kHz, ~128.00 kbps avg

MediaInfo

ОбщееУникальный идентификатор : 179383306456392700049729093220480130286 (0x86F3F7D8342265D784926A5DDE811CEE)Полное имя : F:\My Torrents 3\[apreder]Ensayo_de_un_crimen(1955)DVB.mkvФормат : MatroskaВерсия формата : Version 2Размер файла : 609 МбайтПродолжительность : 1 ч. 17 м.Общий поток : 1103 Кбит/секДата кодирования : UTC 2015-07-29 16:26:59Программа кодирования : mkvmerge v8.2.0 ('World of Adventure') 64bitБиблиотека кодирования : libebml v1.3.1 + libmatroska v1.4.2Attachements : cover.jpg / cover_small.jpg
ВидеоИдентификатор : 2Формат : AVCФормат/Информация : Advanced Video CodecПрофиль формата : Main@L3Параметр CABAC формата : ДаПараметр ReFrames формата : 3 кадраИдентификатор кодека : V_MPEG4/ISO/AVCПродолжительность : 1 ч. 17 м.Битрейт : 953 Кбит/секШирина : 720 пикселейВысота : 576 пикселейСоотношение сторон : 16:9Соотношение сторон в оригинале : 16:9Режим частоты кадров : ПостоянныйЧастота кадров : 24,194 кадра/секЧастота кадров в оригинале : 25,000 кадров/секСтандарт вещания : ComponentЦветовое пространство : YUVСубдискретизация насыщенности : 4:2:0Битовая глубина : 8 битТип развёртки : ЧересстрочнаяПорядок развёртки : Верхнее поле первоеБит/(Пиксели*Кадры) : 0.095Размер потока : 526 Мбайт (86%)Default : ДаForced : Нетcolour_range : LimitedОсновные цвета : BT.601 PALХарактеристики трансфера : BT.470 System B, BT.470 System GКоэффициенты матрицы : BT.601
АудиоИдентификатор : 1Формат : MPEG AudioВерсия формата : Version 1Профиль формата : Layer 2Идентификатор кодека : A_MPEG/L2Идентификатор кодека/Подсказка : MP2Продолжительность : 1 ч. 17 м.Вид битрейта : ПостоянныйБитрейт : 128 Кбит/секКаналы : 2 каналаЧастота : 48,0 КГцМетод сжатия : С потерямиЗадержка видео : -13 мс.Размер потока : 70,7 Мбайт (12%)Язык : RussianDefault : ДаForced : Нет

Скриншот c названием фильма

Скриншоты


Резервные скриншоты


-[2'504]
[teatrix.ru].t5697.torrent 
Торрент: Зарегистрирован [ 2015-10-09 00:55 ] · 03F0EAB5FD2C6EDB9D086EC493757BC24894D09F

Скачать .torrent

Скачать

12 KB

Статус: проверено
Скачан: 0 раз
Размер: 609 MB
terms.php



Быстрый ответ

Имя:

      
Для отправки сообщений необходимо включить JavaScript
Показать сообщения:    

Текущее время: 20-Янв 15:01

Часовой пояс: UTC + 3


Вы можете начинать темы
Вы можете отвечать на сообщения
Вы не можете редактировать свои сообщения
Вы не можете удалять свои сообщения
Вы не можете голосовать в опросах
Вы не можете прикреплять файлы к сообщениям
Вы можете скачивать файлы