Бездны страсти / Грозовой перевал / Abismos de pasión / Wuthering Heights (Луис Бунюэль / Luis Buñuel) [1954, Мексика, драма, DVDRip] MVO + Original Spa


Статистика раздачи [Обновить пиров]
Размер:  1.46 GB   |    Зарегистрирован:  1 год 1 месяц   |    Скачан:  0 раз

Полного источника не было: Никогда

 
   
 
 
 

[Цитировать]

Бездны страсти / Грозовой перевал / Abismos de pasión / Wuthering Heights
Страна: Мексика
Жанр: драма
Год выпуска: 1954
Продолжительность: 01:27:02
Перевод: Профессиональный (многоголосый закадровый)
Cубтитры: нет
Оригинальная аудиодорожка: испанский

Режиссер: Луис Бунюэль / Luis Buñuel
В ролях: Ирасема Дилиан, Хорхе Мистрал, Лилия Прадо, Эрнесто Алонсо, Франциско Реигуэра, Ортензия Сантовена, Джейми Гонзалез Куиньонес, Луис Асевес Кастанеда
Описание: Один из своих первых, принесших ему признание фильмов, "Бездны страсти" знаменитый испанец Луис Бунюэль снял по мотивам романа Эмили Бронте. Жизнь английской провинции, так хорошо знакомая сестрам Бронте, со всеми ее предрассудками, тайными пороками, ханжеством и драматическим накалом страстей, подсказывала романисткам темы и образы для их произведений.
Трагическая история любви Алехандро к дочери хозяина Каталине. Алехандро, приемный сын владельца поместья «Грозовой перевал», был воспитан вместе в детьми помещика. Смерть приемного отца превращает жизнь Алехандро в ад. Побои, издевательства, непосильная работа – становятся уделом приемыша. И лишь любовь Алехандро к Каталине удерживает его от побега. Но Каталина - наследница древнего рода. Она не может выйти за Алехандро. Ее избранником становится богатый сосед. Ничто не держит больше Алехандро в «Грозовом перевале». Оскорбленный, он покидает поместье. Но через несколько лет любовь и месть заставляют Алехандро вернуться.

Качество видео: DVDRip
Формат видео: AVI
Видео: 624x480 (1.30:1), 25 fps, XviD build 73 ~1998 kbps avg, 0.27 bit/pixel
Аудио: 48 kHz, AC3 Dolby Digital, 2/0 (L,R) ch, ~192 kbps - многоголосый
Аудио: 48 kHz, AC3 Dolby Digital, 2/0 (L,R) ch, ~192 kbps - оригинал

MediaInfo

Общее
Полное имя : H:\Abismos.de.pasion.1954.dvdrip_[1.46]_[teko].avi
Формат : AVI
Формат/Информация : Audio Video Interleave
Размер файла : 1,46 Гбайт
Продолжительность : 1 ч. 27 м.
Общий поток : 2398 Кбит/сек
Программа кодирования : VirtualDubMod 1.5.10.3 | www.virtualdub-fr.org || (build 2550/release)
Библиотека кодирования : VirtualDubMod build 2550/release
Видео
Идентификатор : 0
Формат : MPEG-4 Visual
Профиль формата : Advanced Simple@L5
Параметр BVOP формата : 1
Параметр QPel формата : Нет
Параметр GMC формата : Без точки перехода
Параметр матрицы формата : Выборочная
Идентификатор кодека : XVID
Идентификатор кодека/Подсказка : XviD
Продолжительность : 1 ч. 27 м.
Битрейт : 2000 Кбит/сек
Ширина : 624 пикселя
Высота : 480 пикселей
Соотношение сторон : 4:3
Частота кадров : 25,000 кадров/сек
Цветовое пространство : YUV
Субдискретизация насыщенности : 4:2:0
Битовая глубина : 8 бит
Тип развёртки : Прогрессивная
Метод сжатия : С потерями
Бит/(Пиксели*Кадры) : 0.267
Размер потока : 1,22 Гбайт (83%)
Библиотека кодирования : XviD 73
Аудио #1
Идентификатор : 1
Формат : AC-3
Формат/Информация : Audio Coding 3
Расширение режима : CM (complete main)
Параметр Endianness формата : Big
Идентификатор кодека : 2000
Продолжительность : 1 ч. 27 м.
Вид битрейта : Постоянный
Битрейт : 192 Кбит/сек
Каналы : 2 канала
Расположение каналов : Front: L R
Частота : 48,0 КГц
Битовая глубина : 16 бит
Метод сжатия : С потерями
Размер потока : 120 Мбайт (8%)
Выравнивание : Разделение по промежуткам
Продолжительность промежутка : 40 мс. (1,00 видеокадр)
Время предзагрузки промежутка : 500 мс.
Аудио #2
Идентификатор : 2
Формат : AC-3
Формат/Информация : Audio Coding 3
Расширение режима : CM (complete main)
Параметр Endianness формата : Big
Идентификатор кодека : 2000
Продолжительность : 1 ч. 27 м.
Вид битрейта : Постоянный
Битрейт : 192 Кбит/сек
Каналы : 2 канала
Расположение каналов : Front: L R
Частота : 48,0 КГц
Битовая глубина : 16 бит
Метод сжатия : С потерями
Размер потока : 120 Мбайт (8%)
Выравнивание : Разделение по промежуткам
Продолжительность промежутка : 40 мс. (1,00 видеокадр)
Время предзагрузки промежутка : 500 мс.
[teatrix.ru].t5698.torrent 
Торрент: Зарегистрирован [ 2015-10-09 00:55 ] · DFAC34A9C21F52959F4E0B2A975637284CF9F2BB

Скачать .torrent

Скачать

15 KB

Статус: проверено
Скачан: 0 раз
Размер: 1.46 GB
terms.php



Быстрый ответ

Имя:

      
Для отправки сообщений необходимо включить JavaScript
Показать сообщения:    

Текущее время: 08-Дек 17:20

Часовой пояс: UTC + 3


Вы можете начинать темы
Вы можете отвечать на сообщения
Вы не можете редактировать свои сообщения
Вы не можете удалять свои сообщения
Вы не можете голосовать в опросах
Вы не можете прикреплять файлы к сообщениям
Вы можете скачивать файлы