Спасение / Safe (Тодд Хейнс / Todd Haynes) [1995, Великобритания, США, драма, BDRip] MVO + AVO (Антон Алексеев) + Sub Eng + Original Eng


 

[Цитировать]

Спасение / Safe
Страна: Великобритания, США
Жанр: драма
Год выпуска: 1995
Продолжительность: 01:58:55
Перевод №1: Профессиональный (многоголосый закадровый)
Перевод №2: Авторский (одноголосый закадровый) Антон Алексеев
Cубтитры: английские
Оригинальная аудиодорожка: английский
Режиссер: Тодд Хейнс / Todd Haynes
В ролях: Джулианна Мур /Julianne Moore/, Питер Фридман /Peter Friedman/, Ксандер Беркли /Xander Berkeley/, Сьюзан Норман /Susan Norman/, Кэйт МакГрегор-Стюарт /Kate McGregor-Stewart/, Мэри Карвер /Mary Carver/
О фильме: Все в жизни Кэрол Уайт, складывается хорошо: обеспеченная жизнь, любящий муж, сын, огромный богатый дом, подруги, занятия аэробикой, выращивание роз… Болезнь подступает незаметно. Врачи в недоумении. Недуг поражает основы самосознания. Кризис личности, имя которому "Синдром XX века".
«Спасение» (англ. Safe) — драма Тодда Хейнса об Америке 1980-х. Второй полнометражный фильм режиссёра, закрепивший за ним репутацию одного из самых оригинальных постановщиков своего поколения. В центре сюжета — странное заболевание домохозяйки Кэрол Уайт, ставшей жертвой достижений XX века. Эта работа стала первой главной киноролью в карьере актрисы Джулианны Мур.
Доп. информация: http://www.imdb.com/title/tt0114323/
Исходник: http://teatrix.ru/viewtopic.php?t=6792
Сэмпл: http://rusfolder.com/44004820
Качество видео: BDRip
Формат видео: AVI
Видео: 720x384 (1.88:1), 23.976 fps, XviD build 73 ~2221 kbps avg, 0.33 bit/pixel
Аудио #1: 48 kHz, AC3 Dolby Digital, 2/0 (L,R) ch, ~192 kbps - MVO
Аудио #2: 48 kHz, MPEG Audio Layer 3, 1/0 (C) ch, ~96 kbps avg - Алексеев
Аудио #3: 48 kHz, MPEG Audio Layer 3, 1/0 (C) ch, ~96 kbps avg - Original
Формат субтитров: softsub (SRT)

MediaInfo

Общее
Полное имя : H:\Фильмы\Safe.1995.BDRip\Safe.1995.BDRip.avi
Формат : AVI
Формат/Информация : Audio Video Interleave
Профиль формата : OpenDML
Размер файла : 2,18 Гбайт
Продолжительность : 1 ч. 58 м.
Общий поток : 2629 Кбит/сек
Программа кодирования : VirtualDubMod 1.5.10.2 (build 2540/release)
Библиотека кодирования : VirtualDubMod build 2540/release
Авторское право : rip by Judas_X
Видео
Идентификатор : 0
Формат : MPEG-4 Visual
Профиль формата : Advanced Simple@L5
Параметр BVOP формата : 1
Параметр QPel формата : Нет
Параметр GMC формата : Без точки перехода
Параметр матрицы формата : Выборочная
Идентификатор кодека : XVID
Идентификатор кодека/Подсказка : XviD
Продолжительность : 1 ч. 58 м.
Битрейт : 2221 Кбит/сек
Ширина : 720 пикселей
Высота : 384 пикселя
Соотношение сторон : 1,85:1
Частота кадров : 23,976 кадра/сек
Цветовое пространство : YUV
Субдискретизация насыщенности : 4:2:0
Битовая глубина : 8 бит
Тип развёртки : Прогрессивная
Метод сжатия : С потерями
Бит/(Пиксели*Кадры) : 0.335
Размер потока : 1,84 Гбайт (84%)
Библиотека кодирования : XviD 73
Аудио #1
Идентификатор : 1
Формат : AC-3
Формат/Информация : Audio Coding 3
Расширение режима : CM (complete main)
Параметр Endianness формата : Big
Идентификатор кодека : 2000
Продолжительность : 1 ч. 58 м.
Вид битрейта : Постоянный
Битрейт : 192 Кбит/сек
Каналы : 2 канала
Расположение каналов : Front: L R
Частота : 48,0 КГц
Битовая глубина : 16 бит
Метод сжатия : С потерями
Размер потока : 163 Мбайт (7%)
Выравнивание : Разделение по промежуткам
Продолжительность промежутка : 42 мс. (1,00 видеокадр)
Время предзагрузки промежутка : 500 мс.
Аудио #2
Идентификатор : 2
Формат : MPEG Audio
Версия формата : Version 1
Профиль формата : Layer 3
Идентификатор кодека : 55
Идентификатор кодека/Подсказка : MP3
Продолжительность : 1 ч. 58 м.
Вид битрейта : Постоянный
Битрейт : 96,0 Кбит/сек
Каналы : 1 канал
Частота : 48,0 КГц
Метод сжатия : С потерями
Размер потока : 81,7 Мбайт (4%)
Выравнивание : Соединение по промежуткам
Продолжительность промежутка : 42 мс. (1,00 видеокадр)
Время предзагрузки промежутка : 504 мс.
Библиотека кодирования : LAME3.99r
Настройки программы : -m m -V 4 -q 0 -lowpass 20.5 -b 96
Аудио #3
Идентификатор : 3
Формат : MPEG Audio
Версия формата : Version 1
Профиль формата : Layer 3
Идентификатор кодека : 55
Идентификатор кодека/Подсказка : MP3
Продолжительность : 1 ч. 58 м.
Вид битрейта : Постоянный
Битрейт : 96,0 Кбит/сек
Каналы : 1 канал
Частота : 48,0 КГц
Метод сжатия : С потерями
Размер потока : 81,7 Мбайт (4%)
Выравнивание : Соединение по промежуткам
Продолжительность промежутка : 42 мс. (1,00 видеокадр)
Время предзагрузки промежутка : 504 мс.
Библиотека кодирования : LAME3.99r
Настройки программы : -m m -V 4 -q 0 -lowpass 20.5 -b 96

Скриншоты





Показать сообщения:    

Текущее время: 06-Дек 11:15

Часовой пояс: UTC + 3


Вы не можете начинать темы
Вы не можете отвечать на сообщения
Вы не можете редактировать свои сообщения
Вы не можете удалять свои сообщения
Вы не можете голосовать в опросах
Вы не можете прикреплять файлы к сообщениям
Вы не можете скачивать файлы