Листомания / Lisztomania (Кен Расселл / Ken Russell) [1975, Великобритания, драма, музыкальный, пародия, фантастика, DVDRip] VO + Sub Rus + original Eng


Статистика раздачи [Обновить пиров]
Размер:  1.46 GB   |    Зарегистрирован:  1 год 1 месяц   |    Скачан:  0 раз

Полного источника не было: Никогда

 
   
 
 
 

[Цитировать]

Листомания / Lisztomania
Страна: Великобритания
Жанр: драма, музыкальный, пародия, фантастика
Год выпуска: 1975
Продолжительность: 01:41:15
Перевод: Одноголосый (закадровый)
Cубтитры: русские
Оригинальная дорожка: английский

Режиссер: Кен Расселл / Ken Russell
В ролях: Роджер Долтри, Сара Кестелмен, Пол Николас, Ринго Старр, Рик Уэйкман, Джон Джастин, Фиона Льюис, Вероника Куиллиган, Нелл Кэмпбелл, , Эндрю Райлли
Описание: Назвать это биографией Франца Листа (его роль сыграл Роджер Долтри - рок-музыкант из легендарной группы "The Who") можно только с большой натяжкой (биографией и не пахнет). Пожалуй, это самая "отвязная" экстраваганца британского сумасброда, и порадует она только его поклонников и тех, кто свалился с Луны. Слух, зрение и мораль среднего обывателя будут шокированы и даже оскорблены - создается впечатление, что снят был фильм для того, чтобы позлить "буржуазных свиней", выражаясь словами персонажа Долтри. Папу римского, например, играет Ринго Старр, бывший "битл", а Вагнер в «Листомании» — анархист, посланник дьявола, прямой предшественник Гитлера. Режиссер заявлял, что создает «не кинематографическое искусство, а рисунки в манере Гойи того периода, когда испанцы воевали с французами». Конечно, Рассел лукавит, отрицая свой кинематографический дар. Его сатирический, экстравагантный стиль не является карикатурным, плакатным, приспособленным к злобе дня. Эстетика фантазии, комикса, абсурдного действия не мешает режиссеру творить потрясающие воображение образы, лепить вычурные, но запоминающиеся характеры.
Качество видео:DVDRip
Формат видео: AVI
Видео: 656x272 (2.41:1), 25 fps, XviD build 73 ~1665 kbps avg, 0.37 bit/pixel
Аудио: 48 kHz, AC3 Dolby Digital, 2/0 (L,R) ch, ~192 kbps - одноголосый
Аудио: 48 kHz, AC3 Dolby Digital, 2/0 (L,R) ch, ~192 kbps - оригинал

MediaInfo

Общее
Полное имя : H:\Lisztomania.1975.dvdrip_[1.46]_[teko]\Lisztomania.1975.dvdrip_[1.46].avi
Формат : AVI
Формат/Информация : Audio Video Interleave
Размер файла : 1,46 Гбайт
Продолжительность : 1 ч. 41 м.
Общий поток : 2065 Кбит/сек
Программа кодирования : VirtualDubMod 1.5.10.3 | www.virtualdub-fr.org || (build 2550/release)
Библиотека кодирования : VirtualDubMod build 2550/release
Видео
Идентификатор : 0
Формат : MPEG-4 Visual
Профиль формата : Advanced Simple@L5
Параметр BVOP формата : 1
Параметр QPel формата : Нет
Параметр GMC формата : Без точки перехода
Параметр матрицы формата : Выборочная
Идентификатор кодека : XVID
Идентификатор кодека/Подсказка : XviD
Продолжительность : 1 ч. 41 м.
Битрейт : 1666 Кбит/сек
Ширина : 656 пикселей
Высота : 272 пикселя
Соотношение сторон : 2,40:1
Частота кадров : 25,000 кадров/сек
Цветовое пространство : YUV
Субдискретизация насыщенности : 4:2:0
Битовая глубина : 8 бит
Тип развёртки : Прогрессивная
Метод сжатия : С потерями
Бит/(Пиксели*Кадры) : 0.374
Размер потока : 1,18 Гбайт (81%)
Библиотека кодирования : XviD 73
Аудио #1
Идентификатор : 1
Формат : AC-3
Формат/Информация : Audio Coding 3
Расширение режима : CM (complete main)
Параметр Endianness формата : Big
Идентификатор кодека : 2000
Продолжительность : 1 ч. 41 м.
Вид битрейта : Постоянный
Битрейт : 192 Кбит/сек
Каналы : 2 канала
Расположение каналов : Front: L R
Частота : 48,0 КГц
Битовая глубина : 16 бит
Метод сжатия : С потерями
Размер потока : 139 Мбайт (9%)
Выравнивание : Разделение по промежуткам
Продолжительность промежутка : 40 мс. (1,00 видеокадр)
Время предзагрузки промежутка : 500 мс.
Аудио #2
Идентификатор : 2
Формат : AC-3
Формат/Информация : Audio Coding 3
Расширение режима : CM (complete main)
Параметр Endianness формата : Big
Идентификатор кодека : 2000
Продолжительность : 1 ч. 41 м.
Вид битрейта : Постоянный
Битрейт : 192 Кбит/сек
Каналы : 2 канала
Расположение каналов : Front: L R
Частота : 48,0 КГц
Битовая глубина : 16 бит
Метод сжатия : С потерями
Размер потока : 139 Мбайт (9%)
Выравнивание : Разделение по промежуткам
Продолжительность промежутка : 40 мс. (1,00 видеокадр)
Время предзагрузки промежутка : 500 мс.
[teatrix.ru].t5701.torrent 
Торрент: Зарегистрирован [ 2015-10-09 00:55 ] · EF967EA929020C9D2B602789044FD7AC4487C511

Скачать .torrent

Скачать

15 KB

Статус: проверено
Скачан: 0 раз
Размер: 1.46 GB
terms.php



Быстрый ответ

Имя:

      
Для отправки сообщений необходимо включить JavaScript
Показать сообщения:    

Текущее время: 03-Дек 12:34

Часовой пояс: UTC + 3


Вы можете начинать темы
Вы можете отвечать на сообщения
Вы не можете редактировать свои сообщения
Вы не можете удалять свои сообщения
Вы не можете голосовать в опросах
Вы не можете прикреплять файлы к сообщениям
Вы можете скачивать файлы