Предвестники землетрясения / Anuncian sismos / Announce Earthquakes (Рокио Калири / Rocio Caliri, Мелина Маркоу / Melina Marcow) [2014, Аргентина, драма, DVB-AVC] DVO (Kino Polska)


Статистика раздачи [Обновить пиров]
Размер:  336 MB   |    Зарегистрирован:  1 год 1 месяц   |    Скачан:  0 раз

Полного источника не было: Никогда

 
   
 
 
 

[Цитировать]

Предвестники землетрясения
Anuncian sismos- Страна: Аргентина
Жанр: драма
Год выпуска: 2014
Продолжительность: 01:04:57Перевод: Профессиональный (двухголосый закадровый) по заказу Kino Polska на производственно-технической базе Студии "Акцент"
Cубтитры: нет
Режиссер: Рокио Калири / Rocío Caliri, Мелина Маркоу / Melina Marcow
В ролях: Хосе Моралес / José Morales (Mariano), Агустина Гуэрра / Agustina Guerra (Julia), Розарио Траико / Rosario Traico (Ramona), Химена Сивила Соза / Jimena Sivila Soza (Jimena), Хуан Кастро Оливера / Juan Castro Olivera (Juan), Джасинто Бонилло / Jacinto Bonillo (Tobías)
Описание: Причины, приведшие человека к самоубийству, скрыты глубоко и, зачастую, непредсказуемы и непонятны, как землетрясения…
Доп. информация: Filmbox Arthouse IPTV
Участник Buenos Aires Festival Internacional de Cine Independiente (BAFICI) 2014; Torino Film Festival 2014.

Качество видео: DVB-AVC
Формат видео: MKV
Видео: AVC (H.264), 720x576@1024x576 (16:9), 25 fps, ~580 kbps avg, 0.062 bit/pixel
Аудио: MPEG Audio 2, 2 ch, 48 kHz, ~128.00 kbps avg

MediaInfo

ОбщееУникальный идентификатор : 201312606574719711372321501293804153891 (0x977365D0E103513BBC44719096B66C23)Полное имя : F:\My Torrents 3\[apreder]Anuncian_sismos(2014)DVB.mkvФормат : MatroskaВерсия формата : Version 2Размер файла : 336 МбайтПродолжительность : 1 ч. 4 м.Общий поток : 723 Кбит/секДата кодирования : UTC 2015-07-26 18:22:54Программа кодирования : mkvmerge v8.2.0 ('World of Adventure') 64bitБиблиотека кодирования : libebml v1.3.1 + libmatroska v1.4.2Attachements : cover.jpg / cover_small.jpg
ВидеоИдентификатор : 2Формат : AVCФормат/Информация : Advanced Video CodecПрофиль формата : Main@L3Параметр CABAC формата : ДаПараметр ReFrames формата : 3 кадраИдентификатор кодека : V_MPEG4/ISO/AVCПродолжительность : 1 ч. 4 м.Битрейт : 580 Кбит/секШирина : 720 пикселейВысота : 576 пикселейСоотношение сторон : 16:9Соотношение сторон в оригинале : 16:9Режим частоты кадров : ПостоянныйЧастота кадров : 22,745 кадра/секЧастота кадров в оригинале : 25,000 кадров/секСтандарт вещания : ComponentЦветовое пространство : YUVСубдискретизация насыщенности : 4:2:0Битовая глубина : 8 битТип развёртки : ЧересстрочнаяПорядок развёртки : Верхнее поле первоеБит/(Пиксели*Кадры) : 0.062Размер потока : 270 Мбайт (80%)Default : ДаForced : Нетcolour_range : LimitedОсновные цвета : BT.601 PALХарактеристики трансфера : BT.470 System B, BT.470 System GКоэффициенты матрицы : BT.601
АудиоИдентификатор : 1Формат : MPEG AudioВерсия формата : Version 1Профиль формата : Layer 2Идентификатор кодека : A_MPEG/L2Идентификатор кодека/Подсказка : MP2Продолжительность : 1 ч. 4 м.Вид битрейта : ПостоянныйБитрейт : 128 Кбит/секКаналы : 2 каналаЧастота : 48,0 КГцМетод сжатия : С потерямиЗадержка видео : -11 мс.Размер потока : 59,5 Мбайт (18%)Язык : RussianDefault : ДаForced : Нет

Скриншот c названием фильма

Скриншоты


Резервные скриншоты


-[2'496]
[teatrix.ru].t5702.torrent 
Торрент: Зарегистрирован [ 2015-10-09 00:55 ] · 5231F5447A76FCE9DEC87949F39596711F58BB98

Скачать .torrent

Скачать

14 KB

Статус: проверено
Скачан: 0 раз
Размер: 336 MB
terms.php



Быстрый ответ

Имя:

      
Для отправки сообщений необходимо включить JavaScript
Показать сообщения:    

Текущее время: 03-Дек 07:40

Часовой пояс: UTC + 3


Вы можете начинать темы
Вы можете отвечать на сообщения
Вы не можете редактировать свои сообщения
Вы не можете удалять свои сообщения
Вы не можете голосовать в опросах
Вы не можете прикреплять файлы к сообщениям
Вы можете скачивать файлы