Мой милый Пепперленд / My Sweet Pepper Land (Хинер Салим / Hiner Saleem) [2013, Ирак, Германия, Франция, драма, DVDRip] AVO (Владимир Штейн) + Sub Eng + Original


Статистика раздачи [Обновить пиров]
Размер:  1.37 GB   |    Зарегистрирован:  1 год 1 месяц   |    Скачан:  0 раз

Полного источника не было: Никогда

 
   
 
 
 

[Цитировать]

Мой милый Пепперленд / My Sweet Pepper Land
Страна: Ирак, Германия, Франция
Жанр: драма
Год выпуска: 2013
Продолжительность: 01:26:18
Перевод: Авторский (одноголосый закадровый) Владимир Штейн
Cубтитры: английские
Оригинальная аудиодорожка: курдский, арабский
Режиссер: Хинер Салим / Hiner Saleem
В ролях: Коркмаз Арслан, Голшифте Фарахани, Suat Usta, Mir Murad Bedirxan, Feyyaz Duman, Tarik Akreyi, Veronique Wuthrich
О фильме: Баран, герой курдской войны за независимость, несет службу в должности шерифа Эрбиля – столицы Иракского Курдистана. Теперь, когда война окончена, он больше не чувствует себя полезным обществу и подумывает об отставке, но соглашается продолжить службу в маленькой деревне, находящейся на границе Ирана, Турции и Ирака, на территории всеобщего беззакония и нелегальной торговли наркотиками, медикаментами и алкоголем. Прибыв в деревню, он отказывается склонить голову перед Азизом Агой – местным криминальным вождем и абсолютным властителем окрестных земель. Баран знакомится со школьной учительницей Говен, которая, не будучи замужем в возрасте 28 лет, согласно местным обычаям фактически является изгоем...
Доп. информация: http://www.imdb.com/title/tt2875926/
Исходник: http://teatrix.ru/viewtopic.php?t=7125
Сэмпл: http://rusfolder.com/43996073
Качество видео: DVDRip
Формат видео: AVI
Видео: 720x384 (1.88:1), 25 fps, XviD build 73 ~1614 kbps avg, 0.23 bit/pixel
Аудио #1: 48 kHz, AC3 Dolby Digital, 3/2 (L,C,R,l,r) + LFE ch, ~448 kbps avg - русский
Аудио #2: 48 kHz, AC3 Dolby Digital, 2/0 (L,R) ch, ~192 kbps avg - оригинал
Формат субтитров: softsub (SRT)

MediaInfo

Общее
Полное имя : H:\Фильмы\My Sweet Pepper Land.2013.DVDRip\My.Sweet.Pepper.Land.2013.DVDRip.avi
Формат : AVI
Формат/Информация : Audio Video Interleave
Размер файла : 1,37 Гбайт
Продолжительность : 1 ч. 26 м.
Общий поток : 2268 Кбит/сек
Программа кодирования : VirtualDubMod 1.5.10.2 (build 2540/release)
Библиотека кодирования : VirtualDubMod build 2540/release
Видео
Идентификатор : 0
Формат : MPEG-4 Visual
Профиль формата : Advanced Simple@L5
Параметр BVOP формата : 1
Параметр QPel формата : Нет
Параметр GMC формата : Без точки перехода
Параметр матрицы формата : Выборочная
Идентификатор кодека : XVID
Идентификатор кодека/Подсказка : XviD
Продолжительность : 1 ч. 26 м.
Битрейт : 1614 Кбит/сек
Ширина : 720 пикселей
Высота : 384 пикселя
Соотношение сторон : 1,85:1
Частота кадров : 25,000 кадров/сек
Цветовое пространство : YUV
Субдискретизация насыщенности : 4:2:0
Битовая глубина : 8 бит
Тип развёртки : Прогрессивная
Метод сжатия : С потерями
Бит/(Пиксели*Кадры) : 0.233
Размер потока : 996 Мбайт (71%)
Библиотека кодирования : XviD 73
Аудио #1
Идентификатор : 1
Формат : AC-3
Формат/Информация : Audio Coding 3
Расширение режима : CM (complete main)
Параметр Endianness формата : Big
Идентификатор кодека : 2000
Продолжительность : 1 ч. 26 м.
Вид битрейта : Постоянный
Битрейт : 448 Кбит/сек
Каналы : 6 каналов
Расположение каналов : Front: L C R, Side: L R, LFE
Частота : 48,0 КГц
Битовая глубина : 16 бит
Метод сжатия : С потерями
Размер потока : 277 Мбайт (20%)
Выравнивание : Разделение по промежуткам
Продолжительность промежутка : 40 мс. (1,00 видеокадр)
Время предзагрузки промежутка : 500 мс.
Аудио #2
Идентификатор : 2
Формат : AC-3
Формат/Информация : Audio Coding 3
Расширение режима : CM (complete main)
Параметр Endianness формата : Big
Идентификатор кодека : 2000
Продолжительность : 1 ч. 26 м.
Вид битрейта : Постоянный
Битрейт : 192 Кбит/сек
Каналы : 2 канала
Расположение каналов : Front: L R
Частота : 48,0 КГц
Битовая глубина : 16 бит
Метод сжатия : С потерями
Размер потока : 119 Мбайт (8%)
Выравнивание : Разделение по промежуткам
Продолжительность промежутка : 40 мс. (1,00 видеокадр)
Время предзагрузки промежутка : 500 мс.

Скриншот c названием фильма

[teatrix.ru].t5704.torrent 
Торрент: Зарегистрирован [ 2015-10-09 00:55 ] · 88024F991AF0CE0F3B17D7ECDC3DE71F864883E4

Скачать .torrent

Скачать

14 KB

Статус: проверено
Скачан: 0 раз
Размер: 1.37 GB
terms.php



Быстрый ответ

Имя:

      
Для отправки сообщений необходимо включить JavaScript
Показать сообщения:    

Текущее время: 05-Дек 21:39

Часовой пояс: UTC + 3


Вы можете начинать темы
Вы можете отвечать на сообщения
Вы не можете редактировать свои сообщения
Вы не можете удалять свои сообщения
Вы не можете голосовать в опросах
Вы не можете прикреплять файлы к сообщениям
Вы можете скачивать файлы