Субмарина / Submarine (Ричард Айоади / Richard Ayoade) [2010, Великобритания, США, трагикомедия, BDRip] MVO (Первый канал) + Original Eng


 

[Цитировать]

Субмарина
Submarine

Страна: Великобритания
Жанр: трагикомедия
Год выпуска: 2010
Продолжительность: 01:36:53-Перевод: Профессиональный (многоголосый закадровый) Первый канал
Cубтитры: нет
Оригинальная аудиодорожка: английский-Режиссер: Ричард Айоади / Richard Ayoade
В ролях: Крэйг Робертс, Ясмин Пейдж, Салли Хокинс, Ноа Тейлор, Пэдди Консидайн, Даррен Эванс, Мелани Уолтерс, Джемма Чан, Элинор Кроули, Бен Стиллер-Описание: Оливер убежден в своем литературном таланте, и фантазирует о том, как все будут горевать, если он внезапно умрет. Но на самом деле, он совсем не популярен, и в его жизни полно проблем, в первую очередь распадающийся брак родителей, во-вторую - отношения с девушкой, одноклассницей-пироманкой-Доп. информация:
О переводе: Перевод на трекере появляется впервые
Качество: цифровой эфир (Первый канал)
Запись и синхронизация: mister55555-Сэмпл: минута51сек-Качество видео: BDRip (спасибо Beesmark и HELLYWOOD с рутора)
Формат видео: AVI
Видео: XviD, 704x384, 1,85:1, 23,976 кадра/сек, 1688 Кбит/сек
Аудио 1: AC-3, 48,0 КГц, 192 Кбит/сек, 2 канала (многоголосый Первый канал)
Аудио 2: AC-3, 48,0 КГц, 192 Кбит/сек, 2 канала (английская оригинальная дорожка)

MediaInfo

Общее
Полное имя : Субмарина.2010.BDRip.1канал.avi
Формат : AVI
Формат/Информация : Audio Video Interleave
Размер файла : 1,41 Гбайт
Продолжительность : 1 ч. 36 м.
Общий поток : 2086 Кбит/сек
Название фильма : Submarina.2010.Rus.BDRip.XviD.AC3.-HELLYWOOD
Режиссёр : Beesmark
Программа кодирования : VirtualDubModRus 1.5.10.2 (build 2542/release)
Библиотека кодирования : VirtualDubMod build 2542/release
Видео
Идентификатор : 0
Формат : MPEG-4 Visual
Профиль формата : Advanced Simple@L5
Параметр BVOP формата : 2
Параметр QPel формата : Нет
Параметр GMC формата : Без точки перехода
Параметр матрицы формата : Выборочная
Идентификатор кодека : XVID
Идентификатор кодека/Подсказка : XviD
Продолжительность : 1 ч. 36 м.
Битрейт : 1688 Кбит/сек
Ширина : 704 пикселя
Высота : 384 пикселя
Соотношение сторон : 1,85:1
Частота кадров : 23,976 кадра/сек
Цветовое пространство : YUV
Субдискретизация насыщенности : 4:2:0
Битовая глубина : 8 бит
Тип развёртки : Прогрессивная
Метод сжатия : С потерями
Бит/(Пиксели*Кадры) : 0.260
Размер потока : 1,14 Гбайт (81%)
Библиотека кодирования : XviD 65
Аудио #1
Идентификатор : 1
Формат : AC-3
Формат/Информация : Audio Coding 3
Расширение режима : CM (complete main)
Параметр Endianness формата : Big
Идентификатор кодека : 2000
Продолжительность : 1 ч. 36 м.
Вид битрейта : Постоянный
Битрейт : 192 Кбит/сек
Каналы : 2 канала
Расположение каналов : Front: L R
Частота : 48,0 КГц
Битовая глубина : 16 бит
Метод сжатия : С потерями
Размер потока : 133 Мбайт (9%)
Выравнивание : Разделение по промежуткам
Продолжительность промежутка : 42 мс. (1,00 видеокадр)
Время предзагрузки промежутка : 500 мс.
Заголовок : многоголосый Первый канал
Аудио #2
Идентификатор : 2
Формат : AC-3
Формат/Информация : Audio Coding 3
Расширение режима : CM (complete main)
Параметр Endianness формата : Big
Идентификатор кодека : 2000
Продолжительность : 1 ч. 36 м.
Вид битрейта : Постоянный
Битрейт : 192 Кбит/сек
Каналы : 2 канала
Расположение каналов : Front: L R
Частота : 48,0 КГц
Битовая глубина : 16 бит
Метод сжатия : С потерями
Размер потока : 133 Мбайт (9%)
Выравнивание : Разделение по промежуткам
Продолжительность промежутка : 42 мс. (1,00 видеокадр)
Время предзагрузки промежутка : 500 мс.
Заголовок : оригинал

Скриншот c названием фильма




Показать сообщения:    

Текущее время: 06-Дек 15:09

Часовой пояс: UTC + 3


Вы не можете начинать темы
Вы не можете отвечать на сообщения
Вы не можете редактировать свои сообщения
Вы не можете удалять свои сообщения
Вы не можете голосовать в опросах
Вы не можете прикреплять файлы к сообщениям
Вы не можете скачивать файлы