Бродячие псы / Jiao you / Stray Dogs (Цай Минлян / Ming-liang Tsai) [2013, Тайвань, Франция, драма, HDRip-AVC] DVO (DeadSno & Den904)


 

[Цитировать]

Бродячие псы / Jiao you / Stray Dogs
Страна: Тайвань, Франция
Жанр: Драма
Год выпуска: 2013
Продолжительность: 02:15:47
Перевод: Любительский (двухголосый закадровый) DeadSno & Den904 по переводу dsa69
Cубтитры: нет
Оригинальная аудиодорожка: нет
Режиссер: Цай Минлян / Ming-liang Tsai
В ролях: Ли Кан-Шен, Куэй-мэй Ян, Лу И-Чин, Чэнь Шиан-чуй, И Чэн Ли, И Чи Ли
Описание: Отец с двумя детьми бродит по современному Тайбэю. Днем он зарабатывает гроши как человек-реклама роскошных квартир, а сын и дочь бродят по супермаркетам, питаясь на бесплатных дегустациях. Ночи семья проводит в заброшенном доме. В день рождения отца к ним присоединяется некая женщина. Может быть, она станет ключом к разгадке этой таинственной истории?
Доп. информация: Исходник (Stray Dogs.2013.720p.BluRay.AVC-KG) с зарубежного трекера. Спасибо mfccorrea. Фильм переведён по просьбе Gersuzu.
Автор рипа: Gersuzu
Сэмпл: http://multi-up.com/1059627
Качество видео: HDRip-AVC
Формат видео: MKV
Видео: AVC, 1024x576, 1848 kbps, 24 fps
Аудио: AC-3, 192 kbps, 48 kHZ, 2 ch

MediaInfo

Format: Matroska
Format version: Version 4 / Version 2
File size: 1.93 GiB
Duration: 2h 15mn
Overall bit rate: 2 040 Kbps
Movie name: Бродячие псы | Jiao you | Stray Dogs
Encoded date: UTC 2015-07-22 10:25:16
Writing application: mkvmerge v7.7.0 ('Six Voices') 64bit built on Feb 28 2015 23:39:33
Writing library: libebml v1.3.1 + libmatroska v1.4.2
DURATION: 02:15:46.112000000
NUMBER_OF_FRAMES: 254566
NUMBER_OF_BYTES: 195506688
_STATISTICS_WRITING_APP: mkvmerge v7.7.0 ('Six Voices') 64bit built on Feb 28 2015 23:39:33
_STATISTICS_WRITING_DATE_UTC: 2015-07-22 10:25:16
_STATISTICS_TAGS: BPS DURATION NUMBER_OF_FRAMES NUMBER_OF_BYTES
Format: AVC
Format/Info: Advanced Video Codec
Format profile: High@L4.1
Format settings, CABAC: Yes
Format settings, ReFrames: 9 frames
Codec ID: V_MPEG4/ISO/AVC
Duration: 2h 15mn
Bit rate: 1 848 Kbps
Width: 1 024 pixels
Height: 576 pixels
Display aspect ratio: 16:9
Frame rate mode: Constant
Frame rate: 24.000 fps
Color space: YUV
Chroma subsampling: 4:2:0
Bit depth: 8 bits
Scan type: Progressive
Bits/(Pixel*Frame): 0.131
Stream size: 1.71 GiB (89%)
Title: Jiao you | Stray Dogs | HDRip by Gersuzu
Writing library: x264 core 130 r2273 b3065e6
Encoding settings: cabac=1 / ref=9 / deblock=1:-3:-3 / analyse=0x3:0x113 / me=umh / subme=9 / psy=1 / psy_rd=1.00:0.20 / mixed_ref=1 / me_range=32 / chroma_me=1 / trellis=2 / 8x8dct=1 / cqm=0 / deadzone=21,11 / fast_pskip=0 / chroma_qp_offset=-3 / threads=6 / lookahead_threads=1 / sliced_threads=0 / nr=0 / decimate=1 / interlaced=0 / bluray_compat=0 / constrained_intra=0 / bframes=10 / b_pyramid=2 / b_adapt=2 / b_bias=0 / direct=3 / weightb=1 / open_gop=0 / weightp=2 / keyint=250 / keyint_min=23 / scenecut=40 / intra_refresh=0 / rc_lookahead=50 / rc=2pass / mbtree=1 / bitrate=1848 / ratetol=1.0 / qcomp=0.60 / qpmin=0 / qpmax=69 / qpstep=4 / cplxblur=20.0 / qblur=0.5 / vbv_maxrate=50000 / vbv_bufsize=50000 / nal_hrd=none / ip_ratio=1.40 / aq=1:1.00
Default: Yes
Forced: No
Format: AC-3
Format/Info: Audio Coding 3
Mode extension: CM (complete main)
Format settings, Endianness: Big
Codec ID: A_AC3
Duration: 2h 15mn
Bit rate mode: Constant
Bit rate: 192 Kbps
Channel(s): 2 channels
Channel positions: Front: L R
Sampling rate: 48.0 KHz
Bit depth: 16 bits
Compression mode: Lossy
Stream size: 186 MiB (9%)
Default: Yes
Forced: No

Скриншот c названием фильма

Скриншоты




Показать сообщения:    

Текущее время: 09-Дек 14:38

Часовой пояс: UTC + 3


Вы не можете начинать темы
Вы не можете отвечать на сообщения
Вы не можете редактировать свои сообщения
Вы не можете удалять свои сообщения
Вы не можете голосовать в опросах
Вы не можете прикреплять файлы к сообщениям
Вы не можете скачивать файлы