Солино / Solino (Фатих Акин / Fatih Akin) [2002, Германия, Италия, драма, DVDRip] Sub Rus + Original Ger


Статистика раздачи [Обновить пиров]
Размер:  1.46 GB   |    Зарегистрирован:  1 год 2 месяца   |    Скачан:  2 раза

Полного источника не было: 12 дней

 
   
 
 
 

[Цитировать]

Солино / Solino
Страна: Германия, Италия
Жанр: драма
Год выпуска: 2002
Продолжительность: 01:59:47
Перевод: Субтитры
Cубтитры: русские (Mask)
Оригинальная аудиодорожка: немецкий

Режиссер: Фатих Акин / Fatih Akin
В ролях: Барнеби Мечурат, Мориц Бляйбтрой, Тициана Лодато, Антонелла Аттили, Анника Шмитц, Кристиан Таше
Описание: Италия, 60-е годы. Братья Джиджи и Джанкарло вынуждены покинуть со своими родителями родной солнечный городок Солино и переехать в Германию. Обосновавшись в рурском городке, семья начинает собственный бизнес открытием первой в Рурской области пиццерии. В то время как глава семейства Романо энергично расширяет свое дело, а его жена годами мучается ностальгией по родине и не может найти себя в новой жизни, Джиджи и Джанкарло наслаждаются первым опытом свободы, возможностью выбора музыкальных cимпатий и безнаказанностью курения марихуаны. При этом они все больше превращаются друг для друга в соперников — в поисках любви, успеха и ответа на непростой вопрос о самом главном в жизни.
Качество видео: DVDRip
Формат видео: AVI
Видео: 688x384 (1.79:1), 25 fps, XviD build 73 ~1285 kbps avg, 0.19 bit/pixel
Аудио: 48 kHz, AC3 Dolby Digital, 3/2 (L,C,R,l,r) + LFE ch, ~448 kbps

Фрагмент субтитров

500
00:46:18,320 --> 00:46:21,255
- Проклятые негодяи!
- Посмотри, как здесь выглядит!
501
00:46:22,000 --> 00:46:24,719
Это моё Монтепульчано, они
пили моё Монтепульчано!
502
00:46:24,640 --> 00:46:27,063
Они украли моё Монтепульчано!
Негодяи проклятые!
503
00:46:27,440 --> 00:46:31,991
Это вы мне оплатите! Это вы оплатите
до последней капельки, понятно?
504
00:46:38,200 --> 00:46:39,280
Что? Что такое?
505
00:46:39,320 --> 00:46:40,742
Какого хрена?
506
00:46:40,720 --> 00:46:42,096
Они вообще меня не уважают!
507
00:46:42,120 --> 00:46:44,202
Здесь все мои усилия...
508
00:46:44,240 --> 00:46:48,939
...я сутками пашу, чтобы
развивать ресторан, а они только пользуются!
509
00:46:48,960 --> 00:46:51,087
Романо!
По-моему, что-то с ними не так!
510
00:46:51,360 --> 00:46:53,464
Всё!
С меня хватит!
511
00:46:53,600 --> 00:46:55,602
Ты пойдёшь в гостиничное училище,
это моё последнее слово!

MediaInfo

Общее
Полное имя : H:\Solino. 2002.dvdrip_[1.46]_[teko]\Solino. 2002.dvdrip_[1.46].avi
Формат : AVI
Формат/Информация : Audio Video Interleave
Размер файла : 1,46 Гбайт
Продолжительность : 1 ч. 59 м.
Общий поток : 1743 Кбит/сек
Программа кодирования : VirtualDubMod 1.5.10.3 | www.virtualdub-fr.org || (build 2550/release)
Библиотека кодирования : VirtualDubMod build 2550/release
Видео
Идентификатор : 0
Формат : MPEG-4 Visual
Профиль формата : Advanced Simple@L5
Параметр BVOP формата : 1
Параметр QPel формата : Нет
Параметр GMC формата : Без точки перехода
Параметр матрицы формата : Выборочная
Идентификатор кодека : XVID
Идентификатор кодека/Подсказка : XviD
Продолжительность : 1 ч. 59 м.
Битрейт : 1286 Кбит/сек
Ширина : 688 пикселей
Высота : 384 пикселя
Соотношение сторон : 16:9
Частота кадров : 25,000 кадров/сек
Цветовое пространство : YUV
Субдискретизация насыщенности : 4:2:0
Битовая глубина : 8 бит
Тип развёртки : Прогрессивная
Метод сжатия : С потерями
Бит/(Пиксели*Кадры) : 0.195
Размер потока : 1,08 Гбайт (74%)
Библиотека кодирования : XviD 73
Аудио
Идентификатор : 1
Формат : AC-3
Формат/Информация : Audio Coding 3
Расширение режима : CM (complete main)
Параметр Endianness формата : Big
Идентификатор кодека : 2000
Продолжительность : 1 ч. 59 м.
Вид битрейта : Постоянный
Битрейт : 448 Кбит/сек
Каналы : 6 каналов
Расположение каналов : Front: L C R, Side: L R, LFE
Частота : 48,0 КГц
Битовая глубина : 16 бит
Метод сжатия : С потерями
Размер потока : 384 Мбайт (26%)
Выравнивание : Разделение по промежуткам
Продолжительность промежутка : 40 мс. (1,00 видеокадр)
Время предзагрузки промежутка : 500 мс.
[teatrix.ru].t5712.torrent 
Торрент: Зарегистрирован [ 2015-10-09 00:55 ] · 0D67AC55E61B7BF86B26195A90DB0C80B46FE890

Скачать .torrent

Скачать

15 KB

Статус: проверено
Скачан: 2 раз
Размер: 1.46 GB
terms.php



Быстрый ответ

Имя:

      
Для отправки сообщений необходимо включить JavaScript
Показать сообщения:    

Текущее время: 09-Дек 14:34

Часовой пояс: UTC + 3


Вы можете начинать темы
Вы можете отвечать на сообщения
Вы не можете редактировать свои сообщения
Вы не можете удалять свои сообщения
Вы не можете голосовать в опросах
Вы не можете прикреплять файлы к сообщениям
Вы можете скачивать файлы