Город женщин / La Città delle donne / La Citta delle donne / City of Women (Федерико Феллини / Federico Fellini) [1980, Италия, Франция, драма, комедия, BDRip] MVO


 

[Цитировать]

Город женщин / La Città delle donne / La Citta delle donne / City of Women
Страна: Италия, Франция
Жанр: драма, комедия
Год выпуска: 1980
Продолжительность: 02:19:17
Перевод: Профессиональный (многоголосый закадровый)
Cубтитры: нет

Режиссер: Федерико Феллини / Federico Fellini
В ролях: Марчелло Мастроянни, Анна Пруцнал, Бернис Стиджерс, Донателла Дамиани, Йоле Сильвани, Этторе Манни, Фьямметта Баралла, Hйlиne Calzarelli, Изабелль Канто Да Майя, Катрин Каррель
Описание: В поезде мужчина случайно знакомится с красивой женщиной и решает проводить ее домой. Это решение оказалось для героя роковым: он стал заложником в Городе Женщин. Здесь эмансипированные представительницы прекрасной половины человечества отстаивают свое право на главенствующее положение в этом мире.
Качество видео: BDRip
Формат видео: AVI
Видео: 688x368 (1.87:1), 24 fps, XviD build 73 ~1297 kbps avg, 0.21 bit/pixel
Аудио: 48 kHz, AC3 Dolby Digital, 2/0 (L,R) ch, ~192 kbps

MediaInfo

Общее
Полное имя : H:\La.Citta.delle.donne.1980.bdrip_[1.46]_[teko].avi
Формат : AVI
Формат/Информация : Audio Video Interleave
Размер файла : 1,46 Гбайт
Продолжительность : 2 ч. 19 м.
Общий поток : 1499 Кбит/сек
Программа кодирования : VirtualDubMod 1.5.10.3 | www.virtualdub-fr.org || (build 2550/release)
Библиотека кодирования : VirtualDubMod build 2550/release
Видео
Идентификатор : 0
Формат : MPEG-4 Visual
Профиль формата : Advanced Simple@L5
Параметр BVOP формата : 1
Параметр QPel формата : Нет
Параметр GMC формата : Без точки перехода
Параметр матрицы формата : Выборочная
Идентификатор кодека : XVID
Идентификатор кодека/Подсказка : XviD
Продолжительность : 2 ч. 19 м.
Битрейт : 1298 Кбит/сек
Ширина : 688 пикселей
Высота : 368 пикселей
Соотношение сторон : 1,85:1
Частота кадров : 24,000 кадра/сек
Цветовое пространство : YUV
Субдискретизация насыщенности : 4:2:0
Битовая глубина : 8 бит
Тип развёртки : Прогрессивная
Метод сжатия : С потерями
Бит/(Пиксели*Кадры) : 0.214
Размер потока : 1,26 Гбайт (87%)
Библиотека кодирования : XviD 73
Аудио
Идентификатор : 1
Формат : AC-3
Формат/Информация : Audio Coding 3
Расширение режима : CM (complete main)
Параметр Endianness формата : Big
Идентификатор кодека : 2000
Продолжительность : 2 ч. 19 м.
Вид битрейта : Постоянный
Битрейт : 192 Кбит/сек
Каналы : 2 канала
Расположение каналов : Front: L R
Частота : 48,0 КГц
Битовая глубина : 16 бит
Метод сжатия : С потерями
Размер потока : 191 Мбайт (13%)
Выравнивание : Разделение по промежуткам
Продолжительность промежутка : 42 мс. (1,00 видеокадр)
Время предзагрузки промежутка : 500 мс.



Показать сообщения:    

Текущее время: 05-Дек 17:35

Часовой пояс: UTC + 3


Вы не можете начинать темы
Вы не можете отвечать на сообщения
Вы не можете редактировать свои сообщения
Вы не можете удалять свои сообщения
Вы не можете голосовать в опросах
Вы не можете прикреплять файлы к сообщениям
Вы не можете скачивать файлы