Спасение / Safe (Тодд Хейнс / Todd Haynes) [1995, Великобритания, США, драма, BDRip-AVC] 2x AVO (Карцев, Алексеев) + MVO + Sub Eng + Original Eng


 

[Цитировать]

Спасение / Safe
Страна: Великобритания, США
Жанр: драма
Год выпуска: 1995
Продолжительность: 01:59:00
Перевод 1: Авторский (одноголосый закадровый) ПЁТР КАРЦЕВ
Перевод 2: Авторский (одноголосый закадровый) Антон Алексеев
Перевод 3: Профессиональный (многоголосый закадровый)
Cубтитры: английские
Оригинальная аудиодорожка: английский
Режиссер: Тодд Хейнс / Todd Haynes
В ролях: Джулианна Мур /Julianne Moore/, Питер Фридман /Peter Friedman/, Ксандер Беркли /Xander Berkeley/, Сьюзан Норман /Susan Norman/, Кэйт МакГрегор-Стюарт /Kate McGregor-Stewart/, Мэри Карвер, Стивен Гилборн /Steven Gilborn/, Эйприл Грэйс /April Grace/, Питер Кромби /Peter Crombie/, Ронни Фарер, Джоди Маркелл, Лорна Скотт, Джеймс Ле Грос /James Le Gros/
Описание: Какое-то время кажется, что ты смотришь фильм ужасов: Джулиэнн Мур, домохозяйка, занимающаяся в свободное время дизайном интерьера, заболевает. Она чувствует себя все хуже и хуже, но врачи утверждают, что она абсолютно здорова. Муж ничего не понимает и злится. Но потом становится ясно, что она стала жертвой совершенно новой "экологической" болезни - психосоматического заболевания, вызванного постоянным отравлением окружающей среды. И таких больных становится все больше и больше. Похоже, что СПИД не последняя чума на нашей планете. Посмотрите эту картину. Она неплохо сделана и в чисто кинематографичеком плане. (Иванов М.)
--------------------------------------------------------------------------------
Оператор: Алекс Непомнящий /Alex Nepomniaschy/
Сценарист: Тодд Хэйнс /Todd Haynes/
Продюсер: Лорен Залазник /Lauren Zalaznick/, Кристин Вашон /Christine Vachon/
Монтажер: Джеймс Лайонс
Композитор: Эд Томни /Ed Tomney/
--------------------------------------------------
КИНОПОИСК. RU
РЕЙТИНГ 6.527 оценки: 322
7,1/10 from 7 318 users
--------------------------------------------------------------------
Доп. информация: Источник >>> BDRemux 1080p
Перевод Карцева из личной коллекции
--------------------------------------------------
СЭМПЛ
--------------------------------------------------
Качество видео: BDRip-AVC
Формат видео: MKV
Видео: H.264; 1132x612; 23.976 fps; ~ 4500 Kbps; 0.271 Bits/Pixel
Аудио 1: Russian - 48 kHz, AC3 Dolby Digital, 2/0 (L,R) ch, ~192 kbps - Пётр Карцев
Аудио 2: Russian - 48 kHz, AC3 Dolby Digital, 1/0 (С) ch, ~192 kbps - Антон Алексеев
Аудио 3: Russian - 48 kHz, AC3 Dolby Digital, 2/0 (L,R) ch, ~192 kbps - MVO
Аудио 4: English - 48 kHz, AC3 Dolby Digital, 1/0 (С) ch, ~192 kbps - Original
Формат субтитров: softsub (SRT)

MediaInfo

General
Unique ID : 193007723749498880836346192717928132694 (0x9133EF7ABF3008199EC214ABFA7EF056)
Complete name : F:\РАЗДАЧА WEB-DL 720p\СПАСЕНИЕ.SAFE.1995\Safe.1995\Safe.1995.BDRip-AVC.mkv
Format : Matroska
Format version : Version 2
File size : 4.38 GiB
Duration : 1h 59mn
Overall bit rate : 5 270 Kbps
Encoded date : UTC 2015-07-19 06:56:38
Writing application : mkvmerge v3.3.0 ('Language') built on Mar 24 2010 14:59:24
Writing library : libebml v0.8.0 + libmatroska v0.9.0
Attachements : poster.jpg
Video
ID : 1
Format : AVC
Format/Info : Advanced Video Codec
Format profile : High@L4.1
Format settings, CABAC : Yes
Format settings, ReFrames : 12 frames
Codec ID : V_MPEG4/ISO/AVC
Duration : 1h 59mn
Bit rate : 4 500 Kbps
Width : 1 132 pixels
Height : 612 pixels
Display aspect ratio : 1.85:1
Frame rate mode : Constant
Frame rate : 23.976 fps
Color space : YUV
Chroma subsampling : 4:2:0
Bit depth : 8 bits
Scan type : Progressive
Bits/(Pixel*Frame) : 0.271
Stream size : 3.65 GiB (83%)
Writing library : x264 core 146 r2538 121396c
Encoding settings : cabac=1 / ref=12 / deblock=1:-3:-3 / analyse=0x3:0x113 / me=umh / subme=9 / psy=1 / psy_rd=1.00:0.20 / mixed_ref=1 / me_range=64 / chroma_me=1 / trellis=1 / 8x8dct=1 / cqm=0 / deadzone=21,11 / fast_pskip=0 / chroma_qp_offset=-3 / threads=6 / lookahead_threads=1 / sliced_threads=0 / nr=0 / decimate=0 / interlaced=0 / bluray_compat=0 / constrained_intra=0 / bframes=12 / b_pyramid=2 / b_adapt=2 / b_bias=0 / direct=3 / weightb=1 / open_gop=0 / weightp=2 / keyint=250 / keyint_min=23 / scenecut=40 / intra_refresh=0 / rc_lookahead=50 / rc=2pass / mbtree=1 / bitrate=4500 / ratetol=1.0 / qcomp=0.60 / qpmin=0 / qpmax=69 / qpstep=4 / cplxblur=20.0 / qblur=0.5 / vbv_maxrate=14000 / vbv_bufsize=14000 / nal_hrd=none / filler=0 / ip_ratio=1.40 / aq=1:1.00
Language : English
Default : No
Forced : No
Audio #1
ID : 2
Format : AC-3
Format/Info : Audio Coding 3
Mode extension : CM (complete main)
Format settings, Endianness : Big
Codec ID : A_AC3
Duration : 1h 59mn
Bit rate mode : Constant
Bit rate : 192 Kbps
Channel(s) : 2 channels
Channel positions : Front: L R
Sampling rate : 48.0 KHz
Compression mode : Lossy
Stream size : 163 MiB (4%)
Title : AVO Карцев @ AC3 2ch @ 192 Kbps
Language : Russian
Default : No
Forced : No
Audio #2
ID : 3
Format : AC-3
Format/Info : Audio Coding 3
Mode extension : CM (complete main)
Format settings, Endianness : Big
Codec ID : A_AC3
Duration : 1h 59mn
Bit rate mode : Constant
Bit rate : 192 Kbps
Channel(s) : 1 channel
Channel positions : Front: C
Sampling rate : 48.0 KHz
Compression mode : Lossy
Stream size : 163 MiB (4%)
Title : AVO Алексеев @ AC3 1ch @ 192 Kbps
Language : Russian
Default : No
Forced : No
Audio #3
ID : 4
Format : AC-3
Format/Info : Audio Coding 3
Mode extension : CM (complete main)
Format settings, Endianness : Big
Codec ID : A_AC3
Duration : 1h 59mn
Bit rate mode : Constant
Bit rate : 192 Kbps
Channel(s) : 2 channels
Channel positions : Front: L R
Sampling rate : 48.0 KHz
Compression mode : Lossy
Stream size : 163 MiB (4%)
Title : MVO @ AC3 2ch @ 192 Kbps
Language : Russian
Default : No
Forced : No
Audio #4
ID : 5
Format : AC-3
Format/Info : Audio Coding 3
Mode extension : CM (complete main)
Format settings, Endianness : Big
Codec ID : A_AC3
Duration : 1h 59mn
Bit rate mode : Constant
Bit rate : 192 Kbps
Channel(s) : 1 channel
Channel positions : Front: C
Sampling rate : 48.0 KHz
Compression mode : Lossy
Stream size : 163 MiB (4%)
Title : Original @ AC3 1ch @ 192 Kbps
Language : English
Default : No
Forced : No
Text
ID : 6
Format : UTF-8
Codec ID : S_TEXT/UTF8
Codec ID/Info : UTF-8 Plain Text
Title : (* UTF-8)
Language : English
Default : No
Forced : No
Menu
00:00:00.000 : :1.Opening Credits
00:02:58.678 : :2.Couch Delivery
00:05:32.832 : :3.Aerobicise
00:06:52.370 : :4."It's just so unreal"
00:08:43.773 : :5.The wrong couch
00:11:13.631 : :6.A glass of milk
00:13:42.154 : :7.Errands
00:17:19.371 : :8.Late-night wander
00:20:31.772 : :9."I started this fruit diet"
00:21:34.001 : :10.Dinners and doctors
00:26:41.558 : :11.The beauty salon
00:28:47.100 : :12.The bedroom
00:34:28.149 : :13."Everything all right, ma'am?"
00:37:52.144 : :14.The therapist
00:39:42.254 : :15.Baby shower
00:45:34.732 : :16."I have not been feeling up to par"
00:48:29.740 : :17."Are you allergic to the twentieth century?"
00:52:36.444 : :18.The allergist
00:56:07.697 : :19.Support
01:00:30.627 : :20.Seizure
01:06:20.059 : :21.Arriving at Wrenwood
01:13:29.655 : :22.Peter Dunning
01:18:53.395 : :23.Carol's cabin at night
01:25:12.440 : :24."Let's talk about you"
01:30:07.485 : :25.A death at Wrenwood
01:33:48.873 : :26.Visit from Greg and Rory
01:37:51.240 : :27."Why did you become sick?"
01:43:28.327 : :28."It's just for a short time"
01:46:13.909 : :29.Cooking with Christ
01:47:15.720 : :30.Birthday party
01:52:07.137 : :31."I love you"

Скриншот c названием фильма

Скриншоты

, , , ,
, , , ,



Показать сообщения:    

Текущее время: 09-Дек 22:29

Часовой пояс: UTC + 3


Вы не можете начинать темы
Вы не можете отвечать на сообщения
Вы не можете редактировать свои сообщения
Вы не можете удалять свои сообщения
Вы не можете голосовать в опросах
Вы не можете прикреплять файлы к сообщениям
Вы не можете скачивать файлы