Бархатная золотая жила / Velvet Goldmine (Тодд Хейнс / Todd Haynes) [1998, США, Великобритания, драма, музыка, SATRip] [Extended Cut] MVO (Кинопоказ)


Статистика раздачи [Обновить пиров]
Размер:  1.45 GB   |    Зарегистрирован:  1 год 2 месяца   |    Скачан:  1 раз

Полного источника не было: 1 месяц 18 дней

 
   
 
 
 

[Цитировать]

Бархатная золотая жила / Velvet Goldmine / Extended Cut
Страна: США, Великобритания
Жанр: драма, музыка
Год выпуска: 1998
Продолжительность: 01:58:12
Перевод: Профессиональный (многоголосый закадровый) Кинопоказ
Cубтитры: нет
Оригинальная аудиодорожка: нет
Режиссер: Тодд Хейнс / Todd Haynes
В ролях: Джонатан Риз Мейерс, Юэн МакГрегор, Кристиан Бэйл, Тони Коллетт, Эдди Иззард, Эмили Вуф, Майкл Фист, Джанет МакТир, Майрид МакКинли, Люк Морган Оливер
Описание: 1971 год. Глэм-рок врывается на музыкальную сцену. Брайан Слейд оказывается в центре внимания. Он вместе с американским рокером Куртом Уайлдом завоевывают мир. 1974 год. Неожиданно на пике карьеры Брайан решает имитировать свою смерть на сцене. 1984 год. Десять лет со дня исчезновения Слейда. Журналист Артур Стюарт расследует это дело и докапывается до правды. События совпали с пиком сексуальной революции в Англии, которая сопровождалась массовыми беспорядками, волнениями молодежи, рок-концертами, похожими на ад, и реками кокаина.
Доп. информация: Расширенная версия, длиннее чем Blu-Ray на 4 минуты.
Сэмпл: http://multi-up.com/1059200
Качество видео: SATRip
Формат видео: AVI
Видео: MPEG4, XviD, 720x384 (1.875), 25.000 fps, 1 558 Kbps (0.225 bit/pixel)
Аудио: AC-3, 48.0 KHz, 2 ch, 192 Kbps, CBR

MediaInfo

Общее
Полное имя : K:\Бархатная золотая жила.avi
Формат : AVI
Формат/Информация : Audio Video Interleave
Размер файла : 1,45 Гбайт
Продолжительность : 1 ч. 58 м.
Общий поток : 1760 Кбит/сек
Название фильма : Бархатная золотая жила / Velvet Goldmine [Extended Cut](1998)
Программа кодирования : VirtualDubMod 1.5.10.2 (build 2540/release)
Библиотека кодирования : VirtualDubMod build 2540/release
Авторское право : miha2154
Видео
Идентификатор : 0
Формат : MPEG-4 Visual
Профиль формата : Advanced Simple@L5
Параметр BVOP формата : 1
Параметр QPel формата : Нет
Параметр GMC формата : Без точки перехода
Параметр матрицы формата : Выборочная
Идентификатор кодека : XVID
Идентификатор кодека/Подсказка : XviD
Продолжительность : 1 ч. 58 м.
Битрейт : 1558 Кбит/сек
Ширина : 720 пикселей
Высота : 384 пикселя
Соотношение сторон : 1,85:1
Частота кадров : 25,000 кадров/сек
Цветовое пространство : YUV
Субдискретизация насыщенности : 4:2:0
Битовая глубина : 8 бит
Тип развёртки : Прогрессивная
Метод сжатия : С потерями
Бит/(Пиксели*Кадры) : 0.225
Размер потока : 1,29 Гбайт (89%)
Библиотека кодирования : XviD 65
Аудио
Идентификатор : 1
Формат : AC-3
Формат/Информация : Audio Coding 3
Расширение режима : CM (complete main)
Параметр Endianness формата : Big
Идентификатор кодека : 2000
Продолжительность : 1 ч. 58 м.
Вид битрейта : Постоянный
Битрейт : 192 Кбит/сек
Каналы : 2 канала
Расположение каналов : Front: L R
Частота : 48,0 КГц
Метод сжатия : С потерями
Размер потока : 162 Мбайт (11%)
Выравнивание : Разделение по промежуткам
Продолжительность промежутка : 40 мс. (1,00 видеокадр)
Время предзагрузки промежутка : 500 мс.
Заголовок : Профессиональный (многоголосый закадровый)

Скриншоты


[teatrix.ru].t5716.torrent 
Торрент: Зарегистрирован [ 2015-10-09 00:55 ] · 69A63B5044CAD963ABC1D8B2462137A0A9905F2B

Скачать .torrent

Скачать

15 KB

Статус: проверено
Скачан: 1 раз
Размер: 1.45 GB
terms.php



Быстрый ответ

Имя:

      
Для отправки сообщений необходимо включить JavaScript
Показать сообщения:    

Текущее время: 11-Дек 16:54

Часовой пояс: UTC + 3


Вы можете начинать темы
Вы можете отвечать на сообщения
Вы не можете редактировать свои сообщения
Вы не можете удалять свои сообщения
Вы не можете голосовать в опросах
Вы не можете прикреплять файлы к сообщениям
Вы можете скачивать файлы