Золотой век / L'âge d'or / L'Age d'Or (Луис Бунюэль / Luis Buñuel) [1930, Франция, сюрреализм, драма, мелодрама, комедия, фэнтези, BDRip] VO (liosaa) + Sub Rus, Eng + Original Fre


 

[Цитировать]

Золотой век / L'âge d'or / L'Age d'Or
Страна: Франция
Жанр: сюрреализм, драма, мелодрама, комедия, фэнтези
Год выпуска: 1930
Продолжительность: 01:02:37
Перевод: Одноголосый закадровый - liosaa
Cубтитры: русские (liosaa), английские
Оригинальная аудиодорожка: французский

Режиссер: Луис Бунюэль / Luis Buñuel
В ролях: Гастон Модо, Лиа Лис, Каридад де Лабердеск, Макс Эрнст, Хосе Ллоренс Артигас, Лайонел Салем, Жермен Нойзе, Дюшанж, Бонавентура Ибаньес
Описание: Лента представляет собой набор сцен, не связанных между собой сюжетно и как правило, абсурдных по содержанию, но объединённых определённым замыслом режиссёра.
Первые пять минут фильма — как бы «научно-документальный» показ жизни скорпионов. Зрителю рассказывают, как они устроены, какой ведут образ жизни, как друг от друга обороняются.
Затем следует титр: «Через несколько часов». В довольно пустынной местности обитают оборванцы. Все они вооружены. Они узнают, что в их края прибывают майорканцы. Главарь оборванцев (Макс Эрнст) решает обороняться. Однако бой не состоялся: оборванцы умирают по пути от слабости. Цивилизация восторжествовала. На этом месте будет основан новый город — имперский Рим. Сзади раздаётся женский вопль. Присутствующие оборачиваются — молодой человек насилует девушку. Его хватают. Маленькая собачка на поводке очень волнуется. Схваченный молодой человек отбрасывает от себя полицейского и пинает собачку.
Снова иная история. Действие происходит в богатом доме маркизы де Икс. Корову загоняют в одну из комнат дома. По дому проезжает повозка, запряжённая ослами. В доме возникает пожар. Главный герой-любовник — патологически жестокий человек. Главная героиня говорит в порыве чувств: «Какое счастье убить своего ребёнка!»
Последний эпизод — парафраз на «120 дней Содома» де Сада. Четверо епископов (один — ряженый под Христа), убив всех своих жертв, выходят из замка. Недобитый окровавленный человек выползает из дверей. Ряженый в Христа заботливо заводит раненого в дом. Раздается вопль.

Качество видео: BDRip
Формат видео: AVI
Видео: 640x544 (1.18:1), 23.976 fps, XviD build 73 ~1514 kbps avg, 0.18 bit/pixel
Аудио: 48 kHz, AC3 Dolby Digital, 1/0 (C) ch, ~128 kbps - одноголосый
Аудио: 48 kHz, AC3 Dolby Digital, 1/0 (C) ch, ~128 kbps - оригинал (отдельным файлом)

MediaInfo

Общее
Полное имя : H:\L'Age.d'Or.1930.bdrip_[745]_[teko]\L'Age.d'Or.1930.bdrip_[745].avi
Формат : AVI
Формат/Информация : Audio Video Interleave
Размер файла : 740 Мбайт
Продолжительность : 1 ч. 2 м.
Общий поток : 1652 Кбит/сек
Программа кодирования : VirtualDubMod 1.5.10.3 | www.virtualdub-fr.org || (build 2550/release)
Библиотека кодирования : VirtualDubMod build 2550/release
Видео
Идентификатор : 0
Формат : MPEG-4 Visual
Профиль формата : Advanced Simple@L5
Параметр BVOP формата : 2
Параметр QPel формата : Нет
Параметр GMC формата : Без точки перехода
Параметр матрицы формата : Выборочная
Идентификатор кодека : XVID
Идентификатор кодека/Подсказка : XviD
Продолжительность : 1 ч. 2 м.
Битрейт : 1515 Кбит/сек
Ширина : 640 пикселей
Высота : 544 пикселя
Соотношение сторон : 1,176
Частота кадров : 23,976 кадра/сек
Цветовое пространство : YUV
Субдискретизация насыщенности : 4:2:0
Битовая глубина : 8 бит
Тип развёртки : Прогрессивная
Метод сжатия : С потерями
Бит/(Пиксели*Кадры) : 0.181
Размер потока : 678 Мбайт (92%)
Библиотека кодирования : XviD 73
Аудио
Идентификатор : 1
Формат : AC-3
Формат/Информация : Audio Coding 3
Расширение режима : CM (complete main)
Параметр Endianness формата : Big
Идентификатор кодека : 2000
Продолжительность : 1 ч. 2 м.
Вид битрейта : Постоянный
Битрейт : 128 Кбит/сек
Каналы : 1 канал
Расположение каналов : Front: C
Частота : 48,0 КГц
Битовая глубина : 16 бит
Метод сжатия : С потерями
Размер потока : 57,3 Мбайт (8%)
Выравнивание : Разделение по промежуткам
Продолжительность промежутка : 42 мс. (1,00 видеокадр)
Время предзагрузки промежутка : 500 мс.

Скриншоты




Показать сообщения:    

Текущее время: 05-Дек 05:29

Часовой пояс: UTC + 3


Вы не можете начинать темы
Вы не можете отвечать на сообщения
Вы не можете редактировать свои сообщения
Вы не можете удалять свои сообщения
Вы не можете голосовать в опросах
Вы не можете прикреплять файлы к сообщениям
Вы не можете скачивать файлы