Бунтари неонового бога / Rebels of the Neon God / Qing shao nian nuo zha (Цай Минлян / Ming-liang Tsai) [1992, Тайвань, драма, IPTVRip-AVC] DVO (Kino Polska)


Статистика раздачи [Обновить пиров]
Размер:  729 MB   |    Зарегистрирован:  1 год 3 месяца   |    Скачан:  0 раз

Полного источника не было: Никогда

 
   
 
 
 

[Цитировать]

Бунтари неонового бога
Qing shao nian nuo zha- Страна: Тайвань
Жанр: драма
Год выпуска: 1992
Продолжительность: 01:41:54Перевод: Профессиональный (двухголосый закадровый) по заказу Kino Polska на производственно-технической базе Студии "Акцент"
Cубтитры: нет
Режиссер: Цай Минлян / Ming-liang Tsai
В ролях: Чао-юнь Чен, Чан Бинь Жэнь, Ли Кан-Шен, Лу И-Чин
Описание: Первый полнометражный фильм Цай Минляна - китайца, выросшего в Малайзии, снимающего на Тайване и в Гонконге и пользующегося заслуженной любовью синефилов по всему миру. Несмотря на то, что "Бунтари неонового бога" - дебют Цая в большом кино, здесь уже присутствуют и фирменный режиссёрский почерк и все важные для него темы и мотивы - одиночество, дискоммуникация, свойственная современной урбанистической цивилизации, отчуждение между родителями и выросшими детьми, экзистенциальные кризисы, неоновые джунгли азиатских мегаполисов и бесконечный дождь. Юный Сяо-кан, конфликтуя с отцом, бросает школу и отправляется в медитативное путешествие по лабиринту улиц сверкающего огнями Тайбэя, следуя по пятам за начинающим преступником Ах-Цзе и его другом Ах-Пингом, движимый смесью страха, восхищения и зависти. (christm)
Доп. информация: Filmbox Arthouse IPTV
Награды: приз "Золотая лошадь" за лучшую оригинальную музыку Golden Horse Film Festival 1992 + номинация на"Золотую лошадь" лучшей актрисе (Yu-Wen Wang); Бронзовая награда Tokyo International Film Festival 1993; приз за лучший режиссерский дебют Nantes Three Continents Festival 1993 + номинация на "Золотой Монгольфер"; приз города Турина за лучший иностранный фильм Torino International Festival of Young Cinema 1993. Участник Berlin International Film Festival 1993.

Качество видео: IPTVRip-AVC
Формат видео: MKV
Видео: AVC (H.264), 720x576@1024x576 (16:9), 25 fps, ~852 kbps avg, 0.082 bit/pixel
Аудио: MPEG Audio 2, 2 ch, 48 kHz, ~128.00 kbps avg

MediaInfo

ОбщееУникальный идентификатор : 183648284880101645826322435631677921510 (0x8A295F840B7B68F5A42E9970AFDF58E6)Полное имя : F:\My Torrents 3\[apreder]Rebels_of_the_Neon_God(1992)DVB.mkvФормат : MatroskaВерсия формата : Version 2Размер файла : 729 МбайтПродолжительность : 1 ч. 41 м.Общий поток : 1000 Кбит/секДата кодирования : UTC 2015-07-17 08:15:20Программа кодирования : mkvmerge v8.1.0 ('Psychedelic Postcard') 64bitБиблиотека кодирования : libebml v1.3.1 + libmatroska v1.4.2Attachements : cover.jpg / cover_small.jpg
ВидеоИдентификатор : 2Формат : AVCФормат/Информация : Advanced Video CodecПрофиль формата : Main@L3Параметр CABAC формата : ДаПараметр ReFrames формата : 3 кадраИдентификатор кодека : V_MPEG4/ISO/AVCПродолжительность : 1 ч. 41 м.Битрейт : 852 Кбит/секШирина : 720 пикселейВысота : 576 пикселейСоотношение сторон : 16:9Соотношение сторон в оригинале : 16:9Режим частоты кадров : ПостоянныйЧастота кадров : 25,000 кадров/секСтандарт вещания : ComponentЦветовое пространство : YUVСубдискретизация насыщенности : 4:2:0Битовая глубина : 8 битТип развёртки : ЧересстрочнаяПорядок развёртки : Верхнее поле первоеБит/(Пиксели*Кадры) : 0.082Размер потока : 621 Мбайт (85%)Default : ДаForced : Нетcolour_range : LimitedОсновные цвета : BT.601 PALХарактеристики трансфера : BT.470 System B, BT.470 System GКоэффициенты матрицы : BT.601
АудиоИдентификатор : 1Формат : MPEG AudioВерсия формата : Version 1Профиль формата : Layer 2Идентификатор кодека : A_MPEG/L2Идентификатор кодека/Подсказка : MP2Продолжительность : 1 ч. 41 м.Вид битрейта : ПостоянныйБитрейт : 128 Кбит/секКаналы : 2 каналаЧастота : 48,0 КГцМетод сжатия : С потерямиЗадержка видео : -17 мс.Размер потока : 93,3 Мбайт (13%)Язык : RussianDefault : ДаForced : Нет

Скриншот c названием фильма

Скриншоты


Резервные скриншоты


-[2'469]
[teatrix.ru].t5721.torrent 
Торрент: Зарегистрирован [ 2015-10-09 00:55 ] · 77C548497B51324E283942979B9576E29C9A4A40

Скачать .torrent

Скачать

15 KB

Статус: проверено
Скачан: 0 раз
Размер: 729 MB
terms.php



Быстрый ответ

Имя:

      
Для отправки сообщений необходимо включить JavaScript
Показать сообщения:    

Текущее время: 22-Янв 04:45

Часовой пояс: UTC + 3


Вы можете начинать темы
Вы можете отвечать на сообщения
Вы не можете редактировать свои сообщения
Вы не можете удалять свои сообщения
Вы не можете голосовать в опросах
Вы не можете прикреплять файлы к сообщениям
Вы можете скачивать файлы