Трудно быть Богом (Алексей Герман) [2013, Россия, фантастика, драма, BDRip-AVC] Sub Eng


 

[Цитировать]

Трудно Быть Богом
Страна: Россия
Жанр: Фантастика, Драма
Год выпуска: 2013
Продолжительность: 2:57:36
Перевод: Не требуется
Cубтитры: английские
Режиссер: Алексей Герман
В ролях: Леонид Ярмольник, Юрий Цурило, Наталья Мотева, Александр Чутко, Евгений Герчаков, Александр Ильин, Пётр Меркурьев, Олег Ботин, Константин Быков, Юрий Думчев...
Описание: На планете, погружённой в глухое Средневековье, работают наблюдатели-земляне, которые пытаются бережно подправлять ход событий, не нарушая логическое развитие истории. Главный герой, дон Румата Эсторский, осознавая свою задачу сохранения нейтралитета, тем не менее, не выдерживает, когда в Арканаре (одном из городов планеты) захватывает власть «чёрное братство», свергнувшее господство «серых», столь же отвратительных, но не столь кровавых. Румата берётся за меч, чтобы покарать злодеев, и тем самым нарушает все правила и закономерности, вмешиваясь в чужой исторический процесс…
Доп. информация:

Качество видео: BDRip-AVC |Трудно быть Богом (2013) Blu-ray US| HD club
Формат видео: MKV
Видео: 960x576 (1:667:1), 23.976 fps, H264 ~ 4500 kbps avg, 0.344 bit/pixel
Аудио: 48 kHz, Dolby Digital AC3 5.1, 448 kbps

MediaInfo

Общее
Уникальный идентификатор : 175776776325586486127320009959563260579 (0x843D602E397B29AABC1E35B89CB6F2A3)
Полное имя : E:\Мои рипы\Трудно быть богом\Трудно быть Богом by_IVAN@190282.mkv
Формат : Matroska
Версия формата : Version 4 / Version 2
Размер файла : 6,33 Гбайт
Продолжительность : 2 ч. 57 м.
Общий поток : 5104 Кбит/сек
Дата кодирования : UTC 2015-07-14 18:36:43
Программа кодирования : mkvmerge v7.8.0 ('River Man') 64bit built on Mar 27 2015 16:31:37
Библиотека кодирования : libebml v1.3.1 + libmatroska v1.4.2
Attachements : 227410.jpg
DURATION : 02:57:17.544000000
NUMBER_OF_FRAMES : 1472
NUMBER_OF_BYTES : 43344
_STATISTICS_WRITING_APP : mkvmerge v7.8.0 ('River Man') 64bit built on Mar 27 2015 16:31:37
_STATISTICS_WRITING_DATE_UTC : 2015-07-14 18:36:43
_STATISTICS_TAGS : BPS DURATION NUMBER_OF_FRAMES NUMBER_OF_BYTES
Видео
Идентификатор : 1
Формат : AVC
Формат/Информация : Advanced Video Codec
Профиль формата : High@L4.1
Параметр CABAC формата : Да
Параметр ReFrames формата : 14 кадров
Идентификатор кодека : V_MPEG4/ISO/AVC
Продолжительность : 2 ч. 57 м.
Битрейт : 4502 Кбит/сек
Ширина : 960 пикселей
Высота : 576 пикселей
Соотношение сторон : 5:3
Режим частоты кадров : Постоянный
Частота кадров : 23,976 кадра/сек
Цветовое пространство : YUV
Субдискретизация насыщенности : 4:2:0
Битовая глубина : 8 бит
Тип развёртки : Прогрессивная
Бит/(Пиксели*Кадры) : 0.344
Размер потока : 5,65 Гбайт (89%)
Заголовок : Трудно быть Богом by_IVAN@190282
Библиотека кодирования : x264 core 146 r2538kMod 121396c
Настройки программы : cabac=1 / ref=14 / deblock=1:-3:-2 / analyse=0x3:0x133 / me=umh / subme=11 / psy=1 / fade_compensate=0.00 / psy_rd=1.00:0.05 / mixed_ref=1 / me_range=48 / chroma_me=1 / trellis=2 / 8x8dct=1 / cqm=0 / deadzone=21,11 / fast_pskip=0 / chroma_qp_offset=-3 / threads=6 / lookahead_threads=6 / sliced_threads=0 / nr=0 / decimate=1 / interlaced=0 / bluray_compat=0 / constrained_intra=0 / fgo=0 / bframes=16 / b_pyramid=2 / b_adapt=2 / b_bias=0 / direct=3 / weightb=1 / open_gop=0 / weightp=2 / keyint=240 / keyint_min=23 / scenecut=40 / intra_refresh=0 / rc_lookahead=60 / rc=crf / mbtree=0 / crf=20.4000 / qcomp=0.60 / qpmin=0 / qpmax=69 / qpstep=4 / vbv_maxrate=50000 / vbv_bufsize=62500 / crf_max=0.0 / nal_hrd=none / filler=0 / ip_ratio=1.40 / pb_ratio=1.30 / aq=2:1.80
Язык : English
Default : Да
Forced : Нет
Цветовой диапазон : Limited
Основные цвета : BT.709
Характеристики трансфера : BT.709
Коэффициенты матрицы : BT.709
DURATION : 02:57:35.896000000
NUMBER_OF_FRAMES : 255486
NUMBER_OF_BYTES : 6199022744
_STATISTICS_WRITING_APP : mkvmerge v7.8.0 ('River Man') 64bit built on Mar 27 2015 16:31:37
_STATISTICS_WRITING_DATE_UTC : 2015-07-14 18:36:43
_STATISTICS_TAGS : BPS DURATION NUMBER_OF_FRAMES NUMBER_OF_BYTES
Аудио
Идентификатор : 2
Формат : AC-3
Формат/Информация : Audio Coding 3
Расширение режима : CM (complete main)
Параметр Endianness формата : Big
Идентификатор кодека : A_AC3
Продолжительность : 2 ч. 57 м.
Вид битрейта : Постоянный
Битрейт : 448 Кбит/сек
Каналы : 6 каналов
Расположение каналов : Front: L C R, Side: L R, LFE
Частота : 48,0 КГц
Метод сжатия : С потерями
Размер потока : 569 Мбайт (9%)
Заголовок : Rus. Blu-ray
Язык : Russian
Default : Да
Forced : Нет
Текст
Идентификатор : 3
Формат : UTF-8
Идентификатор кодека : S_TEXT/UTF8
Идентификатор кодека/Информация : UTF-8 Plain Text
Заголовок : Eng
Язык : English
Default : Нет
Forced : Нет
Меню
00:00:00.000 : en:Chapter 1
00:07:33.411 : en:Chapter 2
00:12:00.302 : en:Chapter 3
00:12:59.445 : en:Chapter 4
00:15:55.370 : en:Chapter 5
00:20:56.922 : en:Chapter 6
00:23:15.434 : en:Chapter 7
00:25:52.675 : en:Chapter 8
00:29:59.255 : en:Chapter 9
00:38:14.041 : en:Chapter 10
00:46:43.842 : en:Chapter 11
00:49:46.315 : en:Chapter 12
00:53:19.528 : en:Chapter 13
00:55:10.222 : en:Chapter 14
00:58:07.858 : en:Chapter 15
01:08:42.326 : en:Chapter 16
01:12:22.337 : en:Chapter 17
01:15:45.707 : en:Chapter 18
01:19:10.162 : en:Chapter 19
01:22:46.836 : en:Chapter 20
01:25:09.686 : en:Chapter 21
01:28:07.738 : en:Chapter 22
01:31:15.552 : en:Chapter 23
01:36:02.756 : en:Chapter 24
01:37:35.890 : en:Chapter 25
01:40:35.404 : en:Chapter 26
01:45:16.518 : en:Chapter 27
01:48:44.475 : en:Chapter 28
01:50:31.750 : en:Chapter 29
01:52:36.541 : en:Chapter 30
01:53:08.448 : en:Chapter 31
01:59:16.356 : en:Chapter 32
02:07:11.832 : en:Chapter 33
02:07:39.109 : en:Chapter 34
02:09:22.671 : en:Chapter 35
02:12:48.585 : en:Chapter 36
02:22:00.843 : en:Chapter 37
02:22:43.429 : en:Chapter 38
02:23:17.922 : en:Chapter 39
02:24:56.396 : en:Chapter 40
02:26:45.085 : en:Chapter 41
02:29:18.824 : en:Chapter 42
02:33:12.975 : en:Chapter 43
02:34:57.620 : en:Chapter 44
02:36:13.155 : en:Chapter 45
02:37:45.956 : en:Chapter 46
02:39:08.829 : en:Chapter 47
02:41:39.940 : en:Chapter 48
02:44:06.002 : en:Chapter 49
02:51:16.683 : en:Chapter 50

x264 log

VIDEO ENCODING
x264 [info]: frame I:1092 Avg QP:20.40 size: 63360 PSNR Mean Y:42.59 U:98.95 V:97.74 Avg:44.34 Global:43.46
x264 [info]: frame P:59837 Avg QP:21.58 size: 36835 PSNR Mean Y:41.08 U:98.92 V:97.78 Avg:42.84 Global:42.10
x264 [info]: frame B:194557 Avg QP:22.39 size: 20178 PSNR Mean Y:39.81 U:98.83 V:97.58 Avg:41.56 Global:40.77
x264 [info]: consecutive B-frames: 1.6% 3.3% 14.0% 25.3% 14.7% 37.0% 1.8% 0.4% 0.4% 0.2% 0.2% 0.5% 0.1% 0.0% 0.0% 0.1% 0.3%
x264 [total]: encoded 255486 frames, 5.32 fps, 4502.97 kb/s, duration 13:19:52.79
[spoiler="Скриншоты">

Скриншот c названием фильма [spoiler="Скриншоты

Сравнение с исходником"]
http://screenshotcomparison.com/comparison/135227/picture:2
Убедительная просьба пожалуйста кто скачал не бросайте раздачу!!! Торрент файл перезалит,замена рипа на лицензию!Пожалуйста перекачайте торрент файл!



Показать сообщения:    

Текущее время: 06-Дек 17:04

Часовой пояс: UTC + 3


Вы не можете начинать темы
Вы не можете отвечать на сообщения
Вы не можете редактировать свои сообщения
Вы не можете удалять свои сообщения
Вы не можете голосовать в опросах
Вы не можете прикреплять файлы к сообщениям
Вы не можете скачивать файлы