Ветер в ивах / The Wind in the Willows / Mr. Toad's Wild Ride (Терри Джонс / Terry Jones) [1996, Великобритания, мюзикл, фэнтези, комедия, приключения, семейный, DVDRip] VO (Владислав Огородников)


Статистика раздачи [Обновить пиров]
Размер:  746 MB   |    Зарегистрирован:  1 год 2 месяца   |    Скачан:  0 раз

Полного источника не было: Никогда

 
   
 
 
 

[Цитировать]

Ветер в ивах / The Wind in the Willows / Mr. Toad's Wild Ride
Страна: Великобритания
Жанр: мюзикл, фэнтези, комедия, приключения, семейный
Год выпуска: 1996
Продолжительность: 01:27:43
Перевод: Одноголосый закадровый Владислав Огородников
Cубтитры: нет
Режиссер: Терри Джонс /Terry Jones
В ролях: Терри Джонс, Стив Куган, Эрик Айдл, Никол Уильямсон, Энтони Шер, Джон Клиз, Стивен Фрай, Бернард Хилл, Майкл Пэйлин, Найджел Плэйнер
Описание: Экранизация классической сказки Кеннета Грэма теперь открывает зрителю возможность самому поучаствовать в забавных и подчас опасных приключениях четырех верных друзей — спасти дом Крота от землетрясения, вызволить Жабу из тюрьмы и победить в битве коварных Ласок.
Сэмпл: http://multi-up.com/1058575

Качество видео: DVDRip
Формат видео: AVI
Видео: 720x384 (1.88:1), 23.976 fps, XviD, 1050 kbps, 0.16 bit/pixel
Аудио: 48 kHz, MPEG Layer 3, 2 ch, 128.00 kbps, VO (Огородников)

MediaInfo

General
Complete name : E:\Раздачи\rutracker.org\Veter_v_ivah_745_by_max1wq.avi
Format : AVI
Format/Info : Audio Video Interleave
File size : 746 MiB
Duration : 1h 27mn
Overall bit rate : 1 188 Kbps
Writing application : VirtualDubMod 1.5.10.2 (build 2540/release)
Writing library : VirtualDubMod build 2540/release
Video
ID : 0
Format : MPEG-4 Visual
Format profile : Advanced Simple@L5
Format settings, BVOP : 2
Format settings, QPel : No
Format settings, GMC : No warppoints
Format settings, Matrix : Custom
Codec ID : XVID
Codec ID/Hint : XviD
Duration : 1h 27mn
Bit rate : 1 051 Kbps
Width : 720 pixels
Height : 384 pixels
Display aspect ratio : 1.85:1
Frame rate : 23.976 fps
Color space : YUV
Chroma subsampling : 4:2:0
Bit depth : 8 bits
Scan type : Progressive
Compression mode : Lossy
Bits/(Pixel*Frame) : 0.159
Stream size : 659 MiB (88%)
Writing library : XviD 73
Audio
ID : 1
Format : MPEG Audio
Format version : Version 1
Format profile : Layer 3
Codec ID : 55
Codec ID/Hint : MP3
Duration : 1h 27mn
Bit rate mode : Constant
Bit rate : 128 Kbps
Channel(s) : 2 channels
Sampling rate : 48.0 KHz
Compression mode : Lossy
Stream size : 80.3 MiB (11%)
Alignment : Aligned on interleaves
Interleave, duration : 42 ms (1.00 video frame)
Interleave, preload duration : 504 ms

Скриншоты


[teatrix.ru].t5725.torrent 
Торрент: Зарегистрирован [ 2015-10-09 00:55 ] · 3D5146E4E11310E7E529B468CA9687CB16E461D0

Скачать .torrent

Скачать

15 KB

Статус: проверено
Скачан: 0 раз
Размер: 746 MB
terms.php



Быстрый ответ

Имя:

      
Для отправки сообщений необходимо включить JavaScript
Показать сообщения:    

Текущее время: 09-Дек 02:58

Часовой пояс: UTC + 3


Вы можете начинать темы
Вы можете отвечать на сообщения
Вы не можете редактировать свои сообщения
Вы не можете удалять свои сообщения
Вы не можете голосовать в опросах
Вы не можете прикреплять файлы к сообщениям
Вы можете скачивать файлы