Страсти по Андрею (Андрей Тарковский) [1966, СССР, драма, исторический, DVDRip] [первоначальная версия фильма «Андрей Рублёв»] Sub Rus


Статистика раздачи [Обновить пиров]
Размер:  2.18 GB   |    Зарегистрирован:  1 год 2 месяца   |    Скачан:  0 раз

Полного источника не было: Никогда

 
   
 
 
 

[Цитировать]

Страсти по Андрею / первоначальная версия фильма «Андрей Рублёв»
Страна: СССР
Жанр: драма, исторический
Год выпуска: 1966
Продолжительность: 03:17:11
Перевод: Не требуется
Cубтитры: русские (пояснительные)

Режиссер: Андрей Тарковский
В ролях: Анатолий Солоницын, Иван Лапиков, Николай Гринько, Николай Сергеев, Ирина Тарковская, Николай Бурляев, Юрий Назаров, Юрий Никулин, Ролан Быков, Николай Граббе
Описание: «Фильм описывает жизнь Андрея Рублёва — известного русского иконописца, протекающую в конце XIV — начале XV веков. Времени, когда становилась новая русская государственность под рукой Москвы и завершался переход Руси языческой к христианской». (Нашёл, кажется, самое краткое описание. Потому что описывать этот фильм бесмысленно.)
После показа первого варианта картины на «ограниченной» премьере неё создателей фильма обвинили… в пропаганде насилия и жестокости; были сделаны многочисленные замечания и пожелания по переделке фильма. Тарковский перемонтировал и несколько сократил его. Какие-то из замечаний он учёл, какие-то проигнорировал. Он, по словам исследователя, «не просто тупо вырезал, но ещё менял планы местами, что-то вставлял из имеющегося отснятого, но ранее не использованного и т. д. Второй вариант фильма на четверть переозвучен с добавлением музыки и новых звуков. И как раз это-то и представляет большой интерес (для узкого круга людей) и даёт представление о работе мастера». В мае 1969 года фильм, уже под названием «Андрей Рублёв», был показан на Каннском кинофестивале. На экраны СССР он вышел в очень малом числе копий лишь в 1971 году (премьера в Москве состоялась 24 декабря). Показ первоначального варианта («Страсти по Андрею») широкой публике в 1987 году сопровождался заявлениями о том, что наконец-то восстановлена справедливость и показана «подлинная режиссёрская версия». Однако сам Тарковский всегда считал окончательным именно тот вариант, который с 1971 года шёл на отечественных экранах.

Качество видео: DVDRip
Формат видео: AVI
Видео: 720x336 (2.14:1), 25 fps, XviD build 73 ~1386 kbps avg, 0.23 bit/pixel
Аудио: 48 kHz, AC3 Dolby Digital, 1/0 (C) ch, ~192 kbps

MediaInfo

Общее
Полное имя : H:\Страсти.по.Андрею.1966.dvdrip_[2.18]_[teko]\Страсти.по.Андрею.1966.dvdrip_[2.18].avi
Формат : AVI
Формат/Информация : Audio Video Interleave
Профиль формата : OpenDML
Размер файла : 2,18 Гбайт
Продолжительность : 3 ч. 17 м.
Общий поток : 1586 Кбит/сек
Программа кодирования : VirtualDubMod 1.5.10.3 | www.virtualdub-fr.org || (build 2550/release)
Библиотека кодирования : VirtualDubMod build 2550/release
Видео
Идентификатор : 0
Формат : MPEG-4 Visual
Профиль формата : Advanced Simple@L5
Параметр BVOP формата : 1
Параметр QPel формата : Нет
Параметр GMC формата : Без точки перехода
Параметр матрицы формата : Выборочная
Идентификатор кодека : XVID
Идентификатор кодека/Подсказка : XviD
Продолжительность : 3 ч. 17 м.
Битрейт : 1381 Кбит/сек
Ширина : 720 пикселей
Высота : 336 пикселей
Соотношение сторон : 2,143
Частота кадров : 25,000 кадров/сек
Цветовое пространство : YUV
Субдискретизация насыщенности : 4:2:0
Битовая глубина : 8 бит
Тип развёртки : Прогрессивная
Метод сжатия : С потерями
Бит/(Пиксели*Кадры) : 0.228
Размер потока : 1,90 Гбайт (87%)
Библиотека кодирования : XviD 73
Аудио
Идентификатор : 1
Формат : AC-3
Формат/Информация : Audio Coding 3
Расширение режима : CM (complete main)
Параметр Endianness формата : Big
Идентификатор кодека : 2000
Продолжительность : 3 ч. 17 м.
Вид битрейта : Постоянный
Битрейт : 192 Кбит/сек
Каналы : 1 канал
Расположение каналов : Front: C
Частота : 48,0 КГц
Битовая глубина : 16 бит
Метод сжатия : С потерями
Размер потока : 271 Мбайт (12%)
Выравнивание : Разделение по промежуткам
Продолжительность промежутка : 40 мс. (1,00 видеокадр)
Время предзагрузки промежутка : 500 мс.
[teatrix.ru].t5727.torrent 
Торрент: Зарегистрирован [ 2015-10-09 00:55 ] · C4428FF1D4E2FBFD45FF5BA7A4C8D7DFAFEF594C

Скачать .torrent

Скачать

12 KB

Статус: проверено
Скачан: 0 раз
Размер: 2.18 GB
terms.php



Быстрый ответ

Имя:

      
Для отправки сообщений необходимо включить JavaScript
Показать сообщения:    

Текущее время: 10-Дек 02:13

Часовой пояс: UTC + 3


Вы можете начинать темы
Вы можете отвечать на сообщения
Вы не можете редактировать свои сообщения
Вы не можете удалять свои сообщения
Вы не можете голосовать в опросах
Вы не можете прикреплять файлы к сообщениям
Вы можете скачивать файлы