12:08 к востоку от Бухареста / A fost sau n-a fost? (Корнелиу Порумбою / Corneliu Porumboiu) [2006, Румыния, комедия, драма, DVDRip] MVO


Статистика раздачи [Обновить пиров]
Размер:  743 MB   |    Зарегистрирован:  1 год 1 месяц   |    Скачан:  0 раз

Полного источника не было: Никогда

 
   
 
 
 

[Цитировать]

12:08 к востоку от Бухареста / A fost sau n-a fost?
Страна: Румыния
Жанр: комедия, драма
Год выпуска: 2006
Продолжительность: 01:25:16
Перевод: Профессиональный (многоголосый закадровый)
Cубтитры: нет

Режиссер: Корнелиу Порумбою / Corneliu Porumboiu
В ролях: Мирча Андрееску, Теодор Корбан, Ион Сэпдару, Мирела Чьйоабэ, Луминица Георгиу, Кристина Чиофу, Лучиан Ифтиме, Аннемарие Кертик, Петрика Сапдару, Каталин Параскив
Описание: 22 декабря. 16 лет прошло после революции. В небольшом городке в Румынии все уже ждут прихода Рождества. Пенсионер Пискочи готовится провести очередное Рождество в полном одиночестве. Учитель истории Манеску пытается рассчитаться со своими долгами. А Ждреску, владелец местной телевизионной станции, похоже, совсем не заинтересован в грядущих праздниках. Для него пришло время разобраться в истории. Вместе с Манеску и Пискочи он пытается найти ответ на вопрос, на который не может ответить вот уже 16 лет: «Все-таки была у них в городке революция или нет?»
Качество видео: DVDRip
Формат видео: AVI
Видео: 672x368 (1.83:1), 25 fps, XviD build 73 ~1080 kbps avg, 0.17 bit/pixel
Аудио: 48 kHz, MPEG Layer 3, 2 ch, ~128.00 kbps avg

MediaInfo

Общее
Полное имя : H:\A.fost.sau.n-a.fost.2006.dvdrip_[745]_[teko].avi
Формат : AVI
Формат/Информация : Audio Video Interleave
Размер файла : 743 Мбайт
Продолжительность : 1 ч. 25 м.
Общий поток : 1219 Кбит/сек
Программа кодирования : VirtualDubMod 1.5.10.3 | www.virtualdub-fr.org || (build 2550/release)
Библиотека кодирования : VirtualDubMod build 2550/release
Видео
Идентификатор : 0
Формат : MPEG-4 Visual
Профиль формата : Advanced Simple@L5
Параметр BVOP формата : 2
Параметр QPel формата : Нет
Параметр GMC формата : Без точки перехода
Параметр матрицы формата : Выборочная
Идентификатор кодека : XVID
Идентификатор кодека/Подсказка : XviD
Продолжительность : 1 ч. 25 м.
Битрейт : 1081 Кбит/сек
Ширина : 672 пикселя
Высота : 368 пикселей
Соотношение сторон : 1,85:1
Частота кадров : 25,000 кадров/сек
Цветовое пространство : YUV
Субдискретизация насыщенности : 4:2:0
Битовая глубина : 8 бит
Тип развёртки : Прогрессивная
Метод сжатия : С потерями
Бит/(Пиксели*Кадры) : 0.175
Размер потока : 659 Мбайт (89%)
Библиотека кодирования : XviD 73
Аудио
Идентификатор : 1
Формат : MPEG Audio
Версия формата : Version 1
Профиль формата : Layer 3
Идентификатор кодека : 55
Идентификатор кодека/Подсказка : MP3
Продолжительность : 1 ч. 25 м.
Вид битрейта : Постоянный
Битрейт : 128 Кбит/сек
Каналы : 2 канала
Частота : 48,0 КГц
Метод сжатия : С потерями
Размер потока : 78,1 Мбайт (11%)
Выравнивание : Соединение по промежуткам
Продолжительность промежутка : 40 мс. (1,00 видеокадр)
Время предзагрузки промежутка : 504 мс.
Библиотека кодирования : LAME3.98r
Настройки программы : -m s -V 4 -q 2 -lowpass 17 -b 128
[teatrix.ru].t5728.torrent 
Торрент: Зарегистрирован [ 2015-10-09 00:55 ] · B5E19FC3306CE904F3546C0CDAE4973EF02E12E9

Скачать .torrent

Скачать

15 KB

Статус: проверено
Скачан: 0 раз
Размер: 743 MB
terms.php



Быстрый ответ

Имя:

      
Для отправки сообщений необходимо включить JavaScript
Показать сообщения:    

Текущее время: 07-Дек 11:34

Часовой пояс: UTC + 3


Вы можете начинать темы
Вы можете отвечать на сообщения
Вы не можете редактировать свои сообщения
Вы не можете удалять свои сообщения
Вы не можете голосовать в опросах
Вы не можете прикреплять файлы к сообщениям
Вы можете скачивать файлы