Сугата Сансиро. Сага о дзюдо / Легенда о великом мастере дзюдо / Гений дзюдо / Sugata Sanshiro / Judo Saga (Акира Куросава / Akira Kurosawa) [1943, Япония, драма, приключения, экранизация, DVB-AVC] MVO (Kino Polska)


Статистика раздачи [Обновить пиров]
Размер:  501 MB   |    Зарегистрирован:  1 год 1 месяц   |    Скачан:  0 раз

Полного источника не было: Никогда

 
   
 
 
 

[Цитировать]

Сугата Сансиро. Сага о дзюдо
Sugata Sanshirô- Страна: Япония
Жанр: драма, приключения, экранизация
Год выпуска: 1943
Продолжительность: 01:15:37Перевод: Профессиональный (многоголосый закадровый) по заказу Kino Polska на производственно-технической базе Студии "Акцент"
Cубтитры: нет
Режиссер: Акира Куросава / Akira Kurosawa
В ролях: Сусуму Фудзита, Дэендзиро Окоти, Такаси Симура, Юкико Тодороки
Описание: По одноименному роману первого ученика по дзюдо у основателя дзюдо Дзигоро Кано, первого обладателя чёрного пояса в истории дзюдо, одного из "Четырёх Королей Кодокана" Томита Цунэдзиро / Tomita Tsunejirō (1942).
Фильм повествует о развитии дзюдо в Японии конца 19-го века. В центре сюжета — молодой человек Сугата Сансиро, прибывший в большой город с целью изучать боевые искусства. Сначала он попадает в школу джиу-джитсу, но после того, как видит, что его новый наставник устраивает на своего конкурента — легендарного учителя дзюдо Сюгоро Яно подлую засаду и с позором оказывается повергнут им, Сугата упрашивает Яно взять его в ученики.
Этот фильм является первой полнометражной картиной режиссера Акиры Куросавы. Снятый в 1943 году он вышел на экраны в марте того же года. Через год, в марте 1944 года фильм стал жертвой цензуры. Без ведома режиссера фильм претерпел множество купюр и стал короче почти на 20 минут. Случилось это во время войны, но до сих пор так и не удалось найти вырезанные сцены из этого фильма. (bm11)
Доп. информация: Filmbox Arthouse IPTV

Качество видео: DVB-AVC
Формат видео: MKV
Видео: AVC (H.264), 720x576@1024x576 (16:9), 25 fps, ~779 kbps avg, 0.071 bit/pixel
Аудио: MPEG Audio 2, 2 ch, 48 kHz, ~128.00 kbps avg

MediaInfo

ОбщееУникальный идентификатор : 172983007455482927628498981390519437080 (0x822350BD9643523C90E0E45D54210718)Полное имя : F:\My Torrents 3\[apreder]Sugata_Sanshiro(1943)DVB.mkvФормат : MatroskaВерсия формата : Version 2Размер файла : 501 МбайтПродолжительность : 1 ч. 15 м.Общий поток : 926 Кбит/секДата кодирования : UTC 2015-07-12 13:17:57Программа кодирования : mkvmerge v8.1.0 ('Psychedelic Postcard') 64bitБиблиотека кодирования : libebml v1.3.1 + libmatroska v1.4.2Attachements : cover.jpg / cover_small.jpg
ВидеоИдентификатор : 2Формат : AVCФормат/Информация : Advanced Video CodecПрофиль формата : Main@L3Параметр CABAC формата : ДаПараметр ReFrames формата : 3 кадраПараметр GOP формата : M=4, N=32Идентификатор кодека : V_MPEG4/ISO/AVCПродолжительность : 1 ч. 15 м.Битрейт : 779 Кбит/секШирина : 720 пикселейВысота : 576 пикселейСоотношение сторон : 16:9Соотношение сторон в оригинале : 16:9Режим частоты кадров : ПостоянныйЧастота кадров : 22,745 кадра/секЧастота кадров в оригинале : 25,000 кадров/секСтандарт вещания : ComponentЦветовое пространство : YUVСубдискретизация насыщенности : 4:2:0Битовая глубина : 8 битТип развёртки : ЧересстрочнаяПорядок развёртки : Верхнее поле первоеБит/(Пиксели*Кадры) : 0.083Размер потока : 422 Мбайт (84%)Default : ДаForced : Нетcolour_range : LimitedОсновные цвета : BT.601 PALХарактеристики трансфера : BT.470 System B, BT.470 System GКоэффициенты матрицы : BT.601
АудиоИдентификатор : 1Формат : MPEG AudioВерсия формата : Version 1Профиль формата : Layer 2Идентификатор кодека : A_MPEG/L2Идентификатор кодека/Подсказка : MP2Продолжительность : 1 ч. 15 м.Вид битрейта : ПостоянныйБитрейт : 128 Кбит/секКаналы : 2 каналаЧастота : 48,0 КГцМетод сжатия : С потерямиЗадержка видео : -1 мс.Размер потока : 69,2 Мбайт (14%)Язык : RussianDefault : ДаForced : Нет

Скриншот c названием фильма

Скриншоты


Резервные скриншоты


-[2'461]
[teatrix.ru].t5729.torrent 
Торрент: Зарегистрирован [ 2015-10-09 00:55 ] · 80017451A843D9A2F46FF174DF76E5EFF4467BB7

Скачать .torrent

Скачать

20 KB

Статус: проверено
Скачан: 0 раз
Размер: 501 MB
terms.php



Быстрый ответ

Имя:

      
Для отправки сообщений необходимо включить JavaScript
Показать сообщения:    

Текущее время: 05-Дек 01:25

Часовой пояс: UTC + 3


Вы можете начинать темы
Вы можете отвечать на сообщения
Вы не можете редактировать свои сообщения
Вы не можете удалять свои сообщения
Вы не можете голосовать в опросах
Вы не можете прикреплять файлы к сообщениям
Вы можете скачивать файлы