Зимние каникулы / Winter Vacation / Han jia (Ли Хунци / Hongqi Li) [2010, Китай, драма, комедия, DVB-AVC] DVO (Kino Polska)


Статистика раздачи [Обновить пиров]
Размер:  521 MB   |    Зарегистрирован:  1 год 2 месяца   |    Скачан:  0 раз

Полного источника не было: Никогда

 
   
 
 
 

[Цитировать]

Зимние каникулы
Winter Vacation- Страна: Китай
Жанр: драма, комедия
Год выпуска: 2010
Продолжительность: 01:27:10Перевод: Профессиональный (двухголосый закадровый) по заказу Kino Polska на производственно-технической базе Студии "Акцент"
Cубтитры: нет
Оригинальная аудиодорожка: китайский
Режиссер: Ли Хунци / Hongqi Li
В ролях: Бай Цзиньфэн, Бао Ли, Ван Хуи, Се Инь, Чжан Наци
Описание: Обычный городок на севере Китая, последний день зимних каникул. Пять бездельников-подростков собираются в доме одного из них, Чжоу Чжисиня. Как и вся молодежь, они хотят насладиться жизнью, хорошенько отдохнуть в последний день каникул. Но в их городке жизнь словно остановилась и, кажется, что каждый новый день повторяет предыдущий. Иногда беседы героев бессвязны и бесцельны, а иногда наоборот чересчур серьезны. Живя там, где никогда ничего не произойдет, люди продолжают думать о любви, знаниях и своем предназначении. (sonnyb)
Доп. информация: Filmbox Arthouse IPTV
Награды: 3 награды Locarno International Film Festival 2010 ("Золотой леопард", приз FIPRESCI, приз экуменического жюри); приз за лучший полнометражный фильм Rotterdam International Film Festival 2011; приз "Серебряный Хануман" Jogja-NETPAC Asian Film Festival 2011 + номинация на "Золотой Хануман".

Качество видео: DVB-AVC
Формат видео: MKV
Видео: AVC (H.264), 720x576@1024x576 (16:9), 25 fps, ~563 kbps avg, 0.060 bit/pixel
Аудио 1: MPEG Audio 2, 2 ch, 48 kHz, ~128.00 kbps avg - русский
Аудио 2: MPEG Audio 2, 2 ch, 48 kHz, ~128.00 kbps avg - китайский

MediaInfo

ОбщееУникальный идентификатор : 195162104996039332418640157903603344049 (0x92D2DAACFE021E2293848C04EC37A2B1)Полное имя : F:\My Torrents 3\[apreder]Winter_Vacatio(2010)DVB.mkvФормат : MatroskaВерсия формата : Version 2Размер файла : 521 МбайтПродолжительность : 1 ч. 27 м.Общий поток : 836 Кбит/секДата кодирования : UTC 2015-07-12 08:46:05Программа кодирования : mkvmerge v8.1.0 ('Psychedelic Postcard') 64bitБиблиотека кодирования : libebml v1.3.1 + libmatroska v1.4.2Attachements : cover.jpg / cover_small.jpg
ВидеоИдентификатор : 1Формат : AVCФормат/Информация : Advanced Video CodecПрофиль формата : Main@L3Параметр CABAC формата : ДаПараметр ReFrames формата : 3 кадраИдентификатор кодека : V_MPEG4/ISO/AVCПродолжительность : 1 ч. 27 м.Битрейт : 563 Кбит/секШирина : 720 пикселейВысота : 576 пикселейСоотношение сторон : 16:9Соотношение сторон в оригинале : 16:9Режим частоты кадров : ПостоянныйЧастота кадров : 22,727 кадра/секЧастота кадров в оригинале : 25,000 кадров/секСтандарт вещания : ComponentЦветовое пространство : YUVСубдискретизация насыщенности : 4:2:0Битовая глубина : 8 битТип развёртки : ЧересстрочнаяПорядок развёртки : Верхнее поле первоеБит/(Пиксели*Кадры) : 0.060Размер потока : 351 Мбайт (67%)Default : ДаForced : Нетcolour_range : LimitedОсновные цвета : BT.601 PALХарактеристики трансфера : BT.470 System B, BT.470 System GКоэффициенты матрицы : BT.601
Аудио #1Идентификатор : 2Формат : MPEG AudioВерсия формата : Version 1Профиль формата : Layer 2Идентификатор кодека : A_MPEG/L2Идентификатор кодека/Подсказка : MP2Продолжительность : 1 ч. 27 м.Вид битрейта : ПостоянныйБитрейт : 128 Кбит/секКаналы : 2 каналаЧастота : 48,0 КГцМетод сжатия : С потерямиРазмер потока : 79,8 Мбайт (15%)Язык : RussianDefault : ДаForced : Нет
Аудио #2Идентификатор : 3Формат : MPEG AudioВерсия формата : Version 1Профиль формата : Layer 2Идентификатор кодека : A_MPEG/L2Идентификатор кодека/Подсказка : MP2Продолжительность : 1 ч. 27 м.Вид битрейта : ПостоянныйБитрейт : 128 Кбит/секКаналы : 2 каналаЧастота : 48,0 КГцМетод сжатия : С потерямиРазмер потока : 79,8 Мбайт (15%)Язык : ChineseDefault : НетForced : Нет

Скриншот c названием фильма

Скриншоты


Резервные скриншоты


-[2'460]
[teatrix.ru].t5730.torrent 
Торрент: Зарегистрирован [ 2015-10-09 00:55 ] · 7CAECBE06F743317056DD2560717FF0474C9142B

Скачать .torrent

Скачать

11 KB

Статус: проверено
Скачан: 0 раз
Размер: 521 MB
terms.php



Быстрый ответ

Имя:

      
Для отправки сообщений необходимо включить JavaScript
Показать сообщения:    

Текущее время: 11-Дек 03:23

Часовой пояс: UTC + 3


Вы можете начинать темы
Вы можете отвечать на сообщения
Вы не можете редактировать свои сообщения
Вы не можете удалять свои сообщения
Вы не можете голосовать в опросах
Вы не можете прикреплять файлы к сообщениям
Вы можете скачивать файлы