Пьяный ангел / Yoidore tenshi / Drunken Angel (Акира Куросава / Akira Kurosawa) [1948, Япония, криминальная драма, триллер, DVB-AVC] MVO (Kino Polska)


Статистика раздачи [Обновить пиров]
Размер:  662 MB   |    Зарегистрирован:  1 год 2 месяца   |    Скачан:  1 раз

Полного источника не было: 8 дней

 
   
 
 
 

[Цитировать]

Пьяный ангел
Yoidore tenshi- Страна: Япония
Жанр: криминальная драма, триллер
Год выпуска: 1948
Продолжительность: 01:34:00Перевод: Профессиональный (многоголосый закадровый) по заказу Kino Polska на производственно-технической базе Студии "Акцент"
Cубтитры: нет
Оригинальная аудиодорожка: японский
Режиссер: Акира Куросава / Akira Kurosawa
В ролях: Такаси Симура (Doctor Sanada), Тосиро Мифунэ (Matsunaga), Рейсабуро Ямамото (Okada), Митиё Когурэ (Nanae)
Описание: В нищем и грязном районе, в унылом бараке, превращенном в больничку, ведет прием пациентов врач. Однажды к нему обращается за помощью молодой хулиган, раненный в драке с местными гангстерами. Врач обнаруживает у своего непокорного пациента туберкулез. И постепенно, стараясь завоевать доверие, задобрить злобного парня, привязывается к нему, старается не только вылечить, но и спасти его от одиночества, отчаяния, пьянства. Снисходительность, доброта и терпение врача пробуждают в угловатом хулигане отзывчивость, благодарность, человечность, солидарность. Когда вновь появляются гангстеры, "Пьяный ангел", не желая подчиниться законам преступного мира, законам злобы, бросается на защиту наивной и доверчивой медсестры. (Skazhutin)
Доп. информация: Filmbox Arthouse IPTV
Награды: приз за лучший фильм Kinema Junpo Awards 1949; 3 награды Mainichi Film Concours 1949 (лучший фильм, оператор, музыка).

Качество видео: DVB-AVC
Формат видео: MKV
Видео: AVC (H.264), 720x576@1024x576 (16:9), 25 fps, ~708 kbps avg, 0.068 bit/pixel
Аудио 1: MPEG Audio 2, 2 ch, 48 kHz, ~128.00 kbps avg - русский
Аудио 2: MPEG Audio 2, 2 ch, 48 kHz, ~128.00 kbps avg - японский

MediaInfo

ОбщееУникальный идентификатор : 188528397561082303328313563827831205469 (0x8DD53FA5C228C9D493C8F6400DCA6E5D)Полное имя : F:\My Torrents 3\[apreder]Yoidore_tenshi(1948)DVB.mkvФормат : MatroskaВерсия формата : Version 2Размер файла : 662 МбайтПродолжительность : 1 ч. 34 м.Общий поток : 984 Кбит/секДата кодирования : UTC 2015-07-12 08:12:49Программа кодирования : mkvmerge v8.1.0 ('Psychedelic Postcard') 64bitБиблиотека кодирования : libebml v1.3.1 + libmatroska v1.4.2Attachements : cover.jpg / cover_small.jpg
ВидеоИдентификатор : 1Формат : AVCФормат/Информация : Advanced Video CodecПрофиль формата : Main@L3Параметр CABAC формата : ДаПараметр ReFrames формата : 3 кадраИдентификатор кодека : V_MPEG4/ISO/AVCБитрейт : 708 Кбит/секШирина : 720 пикселейВысота : 576 пикселейСоотношение сторон : 16:9Соотношение сторон в оригинале : 16:9Режим частоты кадров : ПеременныйЧастота кадров в оригинале : 25,000 кадров/секСтандарт вещания : ComponentЦветовое пространство : YUVСубдискретизация насыщенности : 4:2:0Битовая глубина : 8 битТип развёртки : ЧересстрочнаяПорядок развёртки : Верхнее поле первоеDefault : ДаForced : Нетcolour_range : LimitedОсновные цвета : BT.601 PALХарактеристики трансфера : BT.470 System B, BT.470 System GКоэффициенты матрицы : BT.601
Аудио #1Идентификатор : 2Формат : MPEG AudioВерсия формата : Version 1Профиль формата : Layer 2Идентификатор кодека : A_MPEG/L2Идентификатор кодека/Подсказка : MP2Продолжительность : 1 ч. 34 м.Вид битрейта : ПостоянныйБитрейт : 128 Кбит/секКаналы : 2 каналаЧастота : 48,0 КГцМетод сжатия : С потерямиЗадержка видео : -16 мс.Размер потока : 86,1 Мбайт (13%)Язык : RussianDefault : ДаForced : Нет
Аудио #2Идентификатор : 3Формат : MPEG AudioВерсия формата : Version 1Профиль формата : Layer 2Идентификатор кодека : A_MPEG/L2Идентификатор кодека/Подсказка : MP2Продолжительность : 1 ч. 34 м.Вид битрейта : ПостоянныйБитрейт : 128 Кбит/секКаналы : 2 каналаЧастота : 48,0 КГцМетод сжатия : С потерямиЗадержка видео : -16 мс.Размер потока : 86,1 Мбайт (13%)Язык : JapaneseDefault : НетForced : Нет

Скриншот c названием фильма

Скриншоты


Резервные скриншоты


-[2'459]
[teatrix.ru].t5731.torrent 
Торрент: Зарегистрирован [ 2015-10-09 00:55 ] · A63B1BBFF9A881C9E81F72DDCB17D4A59ABBC6E7

Скачать .torrent

Скачать

13 KB

Статус: проверено
Скачан: 1 раз
Размер: 662 MB
terms.php



Быстрый ответ

Имя:

      
Для отправки сообщений необходимо включить JavaScript
Показать сообщения:    

Текущее время: 10-Дек 02:15

Часовой пояс: UTC + 3


Вы можете начинать темы
Вы можете отвечать на сообщения
Вы не можете редактировать свои сообщения
Вы не можете удалять свои сообщения
Вы не можете голосовать в опросах
Вы не можете прикреплять файлы к сообщениям
Вы можете скачивать файлы